  0
SECTION
  2
HEADER
  9
$ACADVER
  1
AC1009
  9
$DWGCODEPAGE
  3
ansi_1252
  9
$INSBASE
 10
0.0
 20
0.0
 30
0.0
  9
$EXTMIN
 10
-7.9499970124
 20
-4.3985
 30
-1.0
  9
$EXTMAX
 10
8.49684909679998
 20
5.090861070871647
 30
1.423263544206915
  9
$LIMMIN
 10
0.0
 20
0.0
  9
$LIMMAX
 10
12.0
 20
9.0
  9
$ORTHOMODE
 70
     0
  9
$REGENMODE
 70
     1
  9
$FILLMODE
 70
     1
  9
$QTEXTMODE
 70
     0
  9
$MIRRTEXT
 70
     1
  9
$DRAGMODE
 70
     2
  9
$LTSCALE
 40
1.0
  9
$OSMODE
 70
    37
  9
$ATTMODE
 70
     1
  9
$TEXTSIZE
 40
0.2
  9
$TRACEWID
 40
0.05
  9
$TEXTSTYLE
  7
STANDARD
  9
$CLAYER
  8
0
  9
$CELTYPE
  6
BYLAYER
  9
$CECOLOR
 62
   256
  9
$DIMSCALE
 40
1.0
  9
$DIMASZ
 40
0.18
  9
$DIMEXO
 40
0.0625
  9
$DIMDLI
 40
0.38
  9
$DIMRND
 40
0.0
  9
$DIMDLE
 40
0.0
  9
$DIMEXE
 40
0.18
  9
$DIMTP
 40
0.0
  9
$DIMTM
 40
0.0
  9
$DIMTXT
 40
0.18
  9
$DIMCEN
 40
0.09
  9
$DIMTSZ
 40
0.0
  9
$DIMTOL
 70
     0
  9
$DIMLIM
 70
     0
  9
$DIMTIH
 70
     1
  9
$DIMTOH
 70
     1
  9
$DIMSE1
 70
     0
  9
$DIMSE2
 70
     0
  9
$DIMTAD
 70
     0
  9
$DIMZIN
 70
     0
  9
$DIMBLK
  1

  9
$DIMASO
 70
     1
  9
$DIMSHO
 70
     1
  9
$DIMPOST
  1

  9
$DIMAPOST
  1

  9
$DIMALT
 70
     0
  9
$DIMALTD
 70
     2
  9
$DIMALTF
 40
25.4
  9
$DIMLFAC
 40
1.0
  9
$DIMTOFL
 70
     0
  9
$DIMTVP
 40
0.0
  9
$DIMTIX
 70
     0
  9
$DIMSOXD
 70
     0
  9
$DIMSAH
 70
     0
  9
$DIMBLK1
  1

  9
$DIMBLK2
  1

  9
$DIMSTYLE
  2
STANDARD
  9
$DIMCLRD
 70
     0
  9
$DIMCLRE
 70
     0
  9
$DIMCLRT
 70
     0
  9
$DIMTFAC
 40
1.0
  9
$DIMGAP
 40
0.09
  9
$LUNITS
 70
     2
  9
$LUPREC
 70
     4
  9
$SKETCHINC
 40
0.1
  9
$FILLETRAD
 40
0.5
  9
$AUNITS
 70
     0
  9
$AUPREC
 70
     0
  9
$MENU
  1
.
  9
$ELEVATION
 40
0.0
  9
$PELEVATION
 40
0.0
  9
$THICKNESS
 40
0.0
  9
$LIMCHECK
 70
     0
  9
$CHAMFERA
 40
0.5
  9
$CHAMFERB
 40
0.5
  9
$SKPOLY
 70
     0
  9
$TDCREATE
 40
2305814.294525463
  9
$TDUPDATE
 40
2305814.294525474
  9
$TDINDWG
 40
0.0000000116
  9
$TDUSRTIMER
 40
0.0000000116
  9
$USRTIMER
 70
     1
  9
$ANGBASE
 50
0.0
  9
$ANGDIR
 70
     0
  9
$PDMODE
 70
     0
  9
$PDSIZE
 40
0.0
  9
$PLINEWID
 40
0.0
  9
$COORDS
 70
     1
  9
$SPLFRAME
 70
     0
  9
$SPLINETYPE
 70
     6
  9
$SPLINESEGS
 70
     8
  9
$ATTDIA
 70
     0
  9
$ATTREQ
 70
     1
  9
$HANDLING
 70
     1
  9
$HANDSEED
  5
E6
  9
$SURFTAB1
 70
     6
  9
$SURFTAB2
 70
     6
  9
$SURFTYPE
 70
     6
  9
$SURFU
 70
     6
  9
$SURFV
 70
     6
  9
$UCSNAME
  2

  9
$UCSORG
 10
0.0
 20
0.0
 30
0.0
  9
$UCSXDIR
 10
1.0
 20
0.0
 30
0.0
  9
$UCSYDIR
 10
0.0
 20
1.0
 30
0.0
  9
$PUCSNAME
  2

  9
$PUCSORG
 10
0.0
 20
0.0
 30
0.0
  9
$PUCSXDIR
 10
1.0
 20
0.0
 30
0.0
  9
$PUCSYDIR
 10
0.0
 20
1.0
 30
0.0
  9
$USERI1
 70
     0
  9
$USERI2
 70
     0
  9
$USERI3
 70
     0
  9
$USERI4
 70
     0
  9
$USERI5
 70
     0
  9
$USERR1
 40
0.0
  9
$USERR2
 40
0.0
  9
$USERR3
 40
0.0
  9
$USERR4
 40
0.0
  9
$USERR5
 40
0.0
  9
$WORLDVIEW
 70
     1
  9
$SHADEDGE
 70
     3
  9
$SHADEDIF
 70
    70
  9
$TILEMODE
 70
     1
  9
$MAXACTVP
 70
    64
  9
$PLIMCHECK
 70
     0
  9
$PEXTMIN
 10
1.000000000000000E+20
 20
1.000000000000000E+20
 30
1.000000000000000E+20
  9
$PEXTMAX
 10
-1.000000000000000E+20
 20
-1.000000000000000E+20
 30
-1.000000000000000E+20
  9
$PLIMMIN
 10
0.0
 20
0.0
  9
$PLIMMAX
 10
12.0
 20
9.0
  9
$UNITMODE
 70
     0
  9
$VISRETAIN
 70
     1
  9
$PLINEGEN
 70
     0
  9
$PSLTSCALE
 70
     1
  0
ENDSEC
  0
SECTION
  2
TABLES
  0
TABLE
  2
VPORT
 70
     1
  0
VPORT
  2
*ACTIVE
 70
     0
 10
0.0
 20
0.0
 11
1.0
 21
1.0
 12
0.0
 22
0.0
 13
0.0
 23
0.0
 14
0.5
 24
0.5
 15
0.5
 25
0.5
 16
0.0
 26
0.0
 36
1.0
 17
3.486637826340473
 27
0.3461805354358232
 37
0.0
 40
9.67914829228908
 41
2.425165351555862
 42
50.0
 43
0.0
 44
0.0
 50
0.0
 51
0.0
 71
     0
 72
   100
 73
     1
 74
     3
 75
     0
 76
     0
 77
     0
 78
     0
  0
ENDTAB
  0
TABLE
  2
LTYPE
 70
    21
  0
LTYPE
  2
CONTINUOUS
 70
     0
  3
Solid line
 72
    65
 73
     0
 40
0.0
  0
LTYPE
  2
BORDER
 70
     0
  3
__ __ . __ __ . __ 
 72
    65
 73
     6
 40
0.875
 49
0.25
 49
-0.125
 49
0.25
 49
-0.125
 49
0.0
 49
-0.125
  0
LTYPE
  2
CENTER
 70
     0
  3
___ _ ___ _ ___ _ _
 72
    65
 73
     4
 40
1.125
 49
0.75
 49
-0.125
 49
0.125
 49
-0.125
  0
LTYPE
  2
DASHDOT
 70
     0
  3
_._._._._._._._._._
 72
    65
 73
     4
 40
0.5
 49
0.25
 49
-0.125
 49
0.0
 49
-0.125
  0
LTYPE
  2
DASHED
 70
     0
  3
_ _ _ _ _ _ _ _ _ _
 72
    65
 73
     2
 40
0.375
 49
0.25
 49
-0.125
  0
LTYPE
  2
DIVIDE
 70
     0
  3
__..__..__..__..__.
 72
    65
 73
     6
 40
0.625
 49
0.25
 49
-0.125
 49
0.0
 49
-0.125
 49
0.0
 49
-0.125
  0
LTYPE
  2
DOT
 70
     0
  3
...................
 72
    65
 73
     2
 40
0.125
 49
0.0
 49
-0.125
  0
LTYPE
  2
HIDDEN
 70
     0
  3
__ __ __ __ __ __ _
 72
    65
 73
     2
 40
0.1875
 49
0.125
 49
-0.0625
  0
LTYPE
  2
PHANTOM
 70
     0
  3
___ _ _ ___ _ _ ___
 72
    65
 73
     6
 40
1.25
 49
0.625
 49
-0.125
 49
0.125
 49
-0.125
 49
0.125
 49
-0.125
  0
LTYPE
  2
CUTTING
 70
     0
  3
________ _ _ ______
 72
    65
 73
     6
 40
1.4675
 49
1.0
 49
-0.0725
 49
0.125
 49
-0.0725
 49
0.125
 49
-0.0725
  0
LTYPE
  2
STITCH
 70
     0
  3
_ _ _ _ _ _ _ _ _ _
 72
    65
 73
     2
 40
0.145
 49
0.0725
 49
-0.0725
  0
LTYPE
  2
DOTTED
 70
     0
  3
Dotted
 72
    65
 73
     2
 40
0.125
 49
0.0
 49
-0.125
  0
LTYPE
  2
CENTER27
 70
     0
  3
Center
 72
    65
 73
     4
 40
0.7699999958000001
 49
0.5
 49
-0.0724999979
 49
0.125
 49
-0.0724999979
  0
LTYPE
  2
DASHED28
 70
     0
  3
Dashed
 72
    65
 73
     2
 40
0.375
 49
0.25
 49
-0.125
  0
LTYPE
  2
HIDDEN29
 70
     0
  3
Hidden
 72
    65
 73
     2
 40
0.1974999979
 49
0.125
 49
-0.0724999979
  0
LTYPE
  2
PHANTOM30
 70
     0
  3
Phantom
 72
    65
 73
     6
 40
0.9674999937000002
 49
0.5
 49
-0.0724999979
 49
0.125
 49
-0.0724999979
 49
0.125
 49
-0.0724999979
  0
LTYPE
  2
DASHDOT31
 70
     0
  3
Dashdot
 72
    65
 73
     4
 40
0.6762499958000001
 49
0.5
 49
-0.0724999979
 49
0.03125
 49
-0.0724999979
  0
LTYPE
  2
BORDER32
 70
     0
  3
Border
 72
    65
 73
     6
 40
1.2487499937
 49
0.5
 49
-0.0724999979
 49
0.5
 49
-0.0724999979
 49
0.03125
 49
-0.0724999979
  0
LTYPE
  2
DIVIDE33
 70
     0
  3
Divide
 72
    65
 73
     6
 40
0.7799999937000002
 49
0.5
 49
-0.0724999979
 49
0.03125
 49
-0.0724999979
 49
0.03125
 49
-0.0724999979
  0
LTYPE
  2
CUTTING34
 70
     0
  3
Cutting
 72
    65
 73
     6
 40
1.4674999937
 49
1.0
 49
-0.0724999979
 49
0.125
 49
-0.0724999979
 49
0.125
 49
-0.0724999979
  0
LTYPE
  2
STITCH35
 70
     0
  3
Stitch
 72
    65
 73
     2
 40
0.1449999958
 49
0.0724999979
 49
-0.0724999979
  0
ENDTAB
  0
TABLE
  2
LAYER
 70
     4
  0
LAYER
  2
0
 70
     0
 62
     7
  6
CONTINUOUS
  0
LAYER
  2
LAYER1
 70
     0
 62
     7
  6
CONTINUOUS
  0
LAYER
  2
DXF_US-1711_V2
 70
     0
 62
     7
  6
CONTINUOUS
  0
LAYER
  2
DEFPOINTS
 70
     0
 62
     7
  6
CONTINUOUS
  0
ENDTAB
  0
TABLE
  2
STYLE
 70
     7
  0
STYLE
  2
STANDARD
 70
     0
 40
0.0
 41
1.0
 50
0.0
 71
     0
 42
0.2
  3
txt
  4

  0
STYLE
  2
TEXT30
 70
     0
 40
0.2
 41
1.0
 50
0.0
 71
     0
 42
0.2
  3

  4

  0
STYLE
  2
TEXT59
 70
     0
 40
0.2
 41
1.0
 50
0.0
 71
     0
 42
0.2
  3

  4

  0
STYLE
  2
TEXT63
 70
     0
 40
0.2
 41
1.0
 50
0.0
 71
     0
 42
0.2
  3

  4

  0
STYLE
  2
TEXT87
 70
     0
 40
0.2
 41
1.0
 50
0.0
 71
     0
 42
0.2
  3

  4

  0
STYLE
  2
TEXT88
 70
     0
 40
0.2
 41
1.0
 50
0.0
 71
     0
 42
0.2
  3

  4

  0
STYLE
  2
TEXT89
 70
     0
 40
0.2
 41
1.0
 50
0.0
 71
     0
 42
0.2
  3

  4

  0
ENDTAB
  0
TABLE
  2
VIEW
 70
     0
  0
ENDTAB
  0
TABLE
  2
UCS
 70
     0
  0
ENDTAB
  0
TABLE
  2
APPID
 70
     2
  0
APPID
  2
ACAD
 70
     0
  0
APPID
  2
PUNCH__SOFTWARE_VIACAD
 70
     0
  0
ENDTAB
  0
TABLE
  2
DIMSTYLE
 70
     4
  0
DIMSTYLE
  2
STANDARD
 70
     0
  3

  4

  5

  6

  7

 40
1.0
 41
0.18
 42
0.0625
 43
0.38
 44
0.18
 45
0.0
 46
0.0
 47
0.0
 48
0.0
140
0.18
141
0.09
142
0.0
143
25.4
144
1.0
145
0.0
146
1.0
147
0.09
 71
     0
 72
     0
 73
     1
 74
     1
 75
     0
 76
     0
 77
     0
 78
     0
170
     0
171
     2
172
     0
173
     0
174
     0
175
     0
176
     0
177
     0
178
     0
  0
DIMSTYLE
  2
ROTATEDDIM12
 70
     0
  3

  4

  5

  6

  7

 40
1.0
 41
0.25
 42
0.0625
 43
0.38
 44
0.18
 45
0.0
 46
0.0
 47
0.0
 48
0.0
140
0.125
141
0.09
142
0.0
143
25.4
144
1.0
145
0.0
146
1.0
147
0.09
 71
     0
 72
     0
 73
     1
 74
     1
 75
     0
 76
     0
 77
     0
 78
     0
170
     0
171
     2
172
     0
173
     0
174
     0
175
     0
176
     0
177
     0
178
     0
  0
DIMSTYLE
  2
ROTATEDDIM13
 70
     0
  3

  4

  5

  6

  7

 40
1.0
 41
0.25
 42
0.0625
 43
0.38
 44
0.18
 45
0.0
 46
0.0
 47
0.0
 48
0.0
140
0.125
141
0.09
142
0.0
143
25.4
144
1.0
145
0.0
146
1.0
147
0.09
 71
     0
 72
     0
 73
     1
 74
     1
 75
     0
 76
     0
 77
     0
 78
     0
170
     0
171
     2
172
     0
173
     0
174
     0
175
     0
176
     0
177
     0
178
     0
  0
DIMSTYLE
  2
ALIGNEDDIM14
 70
     0
  3

  4

  5

  6

  7

 40
1.0
 41
0.25
 42
0.0625
 43
0.38
 44
0.18
 45
0.0
 46
0.0
 47
0.0
 48
0.0
140
0.125
141
0.09
142
0.0
143
25.4
144
1.0
145
0.0
146
1.0
147
0.09
 71
     0
 72
     0
 73
     1
 74
     1
 75
     0
 76
     0
 77
     0
 78
     0
170
     0
171
     2
172
     0
173
     0
174
     0
175
     0
176
     0
177
     0
178
     0
  0
ENDTAB
  0
ENDSEC
  0
SECTION
  2
BLOCKS
  0
BLOCK
  8
0
  2
$MODEL_SPACE
 70
     0
 10
0.0
 20
0.0
 30
0.0
  3
$MODEL_SPACE
  1

  0
ENDBLK
  5
21
  8
0
  0
BLOCK
 67
     1
  8
0
  2
$PAPER_SPACE
 70
     0
 10
0.0
 20
0.0
 30
0.0
  3
$PAPER_SPACE
  1

  0
ENDBLK
  5
1D
 67
     1
  8
0
  0
BLOCK
  8
0
  2
*D1
 70
     1
 10
0.0
 20
0.0
 30
0.0
  3
*D1
  1

  0
LINE
  5
6F
  8
DXF_US-1711_V2
 62
     0
 10
-1.3288123506
 20
-0.5888557774
 30
0.0
 11
-1.3288123506
 21
-0.8570368549
 31
0.0
  0
LINE
  5
70
  8
DXF_US-1711_V2
 62
     0
 10
-1.2036706618
 20
-0.5888557774
 30
0.0
 11
-1.2036706618
 21
-0.8570368549
 31
0.0
  0
LINE
  5
71
  8
DXF_US-1711_V2
 62
     0
 10
-1.5788123506
 20
-0.6770368549
 30
0.0
 11
-1.8288123506
 21
-0.6770368549
 31
0.0
  0
LINE
  5
72
  8
DXF_US-1711_V2
 62
     0
 10
-0.9536706617999999
 20
-0.6770368549
 30
0.0
 11
-0.7036706617999999
 21
-0.6770368549
 31
0.0
  0
SOLID
  5
73
  8
DXF_US-1711_V2
 62
     0
 10
-1.5788123506
 20
-0.7187035215666666
 30
0.0
 11
-1.5788123506
 21
-0.6353701882333334
 31
0.0
 12
-1.3288123506
 22
-0.6770368549
 32
0.0
 13
-1.3288123506
 23
-0.6770368549
 33
0.0
  0
SOLID
  5
74
  8
DXF_US-1711_V2
 62
     0
 10
-0.9536706617999999
 20
-0.6353701882333334
 30
0.0
 11
-0.9536706617999999
 21
-0.7187035215666666
 31
0.0
 12
-1.2036706618
 22
-0.6770368549
 32
0.0
 13
-1.2036706618
 23
-0.6770368549
 33
0.0
  0
TEXT
  5
75
  8
DXF_US-1711_V2
 62
     0
 10
-0.6315278046571429
 20
-0.7395368549
 30
0.0
 40
0.125
  1
0.125
  0
POINT
  5
76
  8
DEFPOINTS
 62
     0
 10
-1.3288123506
 20
-0.5263557774
 30
0.0
  0
POINT
  5
77
  8
DEFPOINTS
 62
     0
 10
-1.2036706618
 20
-0.5263557774
 30
0.0
  0
POINT
  5
78
  8
DEFPOINTS
 62
     0
 10
-1.2036706618
 20
-0.6770368549
 30
0.0
  0
ENDBLK
  5
7A
  8
0
  0
BLOCK
  8
0
  2
*D2
 70
     1
 10
0.0
 20
0.0
 30
0.0
  3
*D2
  1

  0
LINE
  5
B1
  8
DXF_US-1711_V2
 62
     0
 10
-6.878151517599981
 20
2.476906937271647
 30
0.0
 11
-6.878151517599981
 21
5.090861070871647
 31
0.0
  0
LINE
  5
B2
  8
DXF_US-1711_V2
 62
     0
 10
8.4965
 20
2.4769068921
 30
0.0
 11
8.4965
 21
5.090861070871647
 31
0.0
  0
LINE
  5
B3
  8
DXF_US-1711_V2
 62
     0
 10
-6.628151517599981
 20
4.910861070871647
 30
0.0
 11
0.4185790031047718
 21
4.910861070871647
 31
0.0
  0
LINE
  5
B4
  8
DXF_US-1711_V2
 62
     0
 10
8.2465
 20
4.910861070871647
 30
0.0
 11
1.199769479295247
 21
4.910861070871647
 31
0.0
  0
SOLID
  5
B5
  8
DXF_US-1711_V2
 62
     0
 10
-6.628151517599981
 20
4.952527737538314
 30
0.0
 11
-6.628151517599981
 21
4.86919440420498
 31
0.0
 12
-6.878151517599981
 22
4.910861070871647
 32
0.0
 13
-6.878151517599981
 23
4.910861070871647
 33
0.0
  0
SOLID
  5
B6
  8
DXF_US-1711_V2
 62
     0
 10
8.2465
 20
4.86919440420498
 30
0.0
 11
8.2465
 21
4.952527737538314
 31
0.0
 12
8.4965
 22
4.910861070871647
 32
0.0
 13
8.4965
 23
4.910861070871647
 33
0.0
  0
TEXT
  5
B7
  8
DXF_US-1711_V2
 62
     0
 10
0.4728647173904851
 20
4.848361070871647
 30
0.0
 40
0.125
  1
15.375
  0
POINT
  5
B8
  8
DEFPOINTS
 62
     0
 10
-6.878151517599981
 20
2.414406937271647
 30
0.0
  0
POINT
  5
B9
  8
DEFPOINTS
 62
     0
 10
8.4965
 20
2.4144068921
 30
0.0
  0
POINT
  5
BA
  8
DEFPOINTS
 62
     0
 10
8.4965
 20
4.910861070871647
 30
0.0
  0
ENDBLK
  5
BC
  8
0
  0
BLOCK
  8
0
  2
*D3
 70
     1
 10
0.0
 20
0.0
 30
0.0
  3
*D3
  1

  0
LINE
  5
C2
  8
DXF_US-1711_V2
 62
     0
 10
-5.1281512104
 20
4.226500000000001
 30
0.0
 11
-7.9499970124
 21
4.226500000000001
 31
0.0
  0
LINE
  5
C3
  8
DXF_US-1711_V2
 62
     0
 10
-5.1281512104
 20
-4.3985
 30
0.0
 11
-7.9499970124
 21
-4.3985
 31
0.0
  0
LINE
  5
C4
  8
DXF_US-1711_V2
 62
     0
 10
-7.7699970124
 20
3.976500000000001
 30
0.0
 11
-7.7699970124
 21
0.0665000000000004
 31
0.0
  0
LINE
  5
C5
  8
DXF_US-1711_V2
 62
     0
 10
-7.7699970124
 20
-4.1485
 30
0.0
 11
-7.7699970124
 21
-0.2384999999999993
 31
0.0
  0
SOLID
  5
C6
  8
DXF_US-1711_V2
 62
     0
 10
-7.728330345733333
 20
3.976500000000001
 30
0.0
 11
-7.811663679066667
 21
3.976500000000001
 31
0.0
 12
-7.7699970124
 22
4.226500000000001
 32
0.0
 13
-7.7699970124
 23
4.226500000000001
 33
0.0
  0
SOLID
  5
C7
  8
DXF_US-1711_V2
 62
     0
 10
-7.811663679066667
 20
-4.1485
 30
0.0
 11
-7.728330345733333
 21
-4.1485
 31
0.0
 12
-7.7699970124
 22
-4.3985
 32
0.0
 13
-7.7699970124
 23
-4.3985
 33
0.0
  0
TEXT
  5
C8
  8
DXF_US-1711_V2
 62
     0
 10
-8.037854155257142
 20
-0.1484999999999994
 30
0.0
 40
0.125
  1
8.625
  0
POINT
  5
C9
  8
DEFPOINTS
 62
     0
 10
-5.0656512104
 20
4.226500000000001
 30
0.0
  0
POINT
  5
CA
  8
DEFPOINTS
 62
     0
 10
-5.0656512104
 20
-4.3985
 30
0.0
  0
POINT
  5
CB
  8
DEFPOINTS
 62
     0
 10
-7.7699970124
 20
-4.3985
 30
0.0
  0
ENDBLK
  5
CD
  8
0
  0
ENDSEC
  0
SECTION
  2
ENTITIES
  0
ARC
  5
53
  8
DXF_US-1711_V2
 62
    18
 10
-5.0656515176
 20
-2.585593415100001
 30
0.0
 40
1.812499999999998
 50
179.9999917223574
 51
270.0000082831
  0
ARC
  5
54
  8
DXF_US-1711_V2
 62
    18
 10
-5.065651517600001
 20
2.414407199300001
 30
0.0
 40
1.8125
 50
89.9999917169
 51
179.9999916784438
  0
LINE
  5
55
  8
DXF_US-1711_V2
 62
     1
 10
2.6711876494
 20
-0.5263557774
 30
0.0
 11
2.6711876494
 21
-0.1843969539
 31
0.0
  0
LINE
  5
56
  8
DXF_US-1711_V2
 62
    18
 10
0.0789886344
 20
-1.0013557774
 30
0.0
 11
0.4893971598
 21
-0.605397457
 31
0.0
  0
LINE
  5
57
  8
DXF_US-1711_V2
 62
    18
 10
0.4129493167
 20
-1.0013557774
 30
0.0
 11
0.5239493167
 21
-0.8903557774
 31
0.0
  0
LINE
  5
58
  8
DXF_US-1711_V2
 62
     1
 10
2.6711876494
 20
-1.1033983069
 30
0.0
 11
2.6711876494
 21
-0.5263557774
 31
0.0
  0
LINE
  5
59
  8
DXF_US-1711_V2
 62
    18
 10
0.5239493167
 20
-0.7138557774
 30
0.0
 11
0.5239493167
 21
-1.0013557774
 31
0.0
  0
ARC
  5
5A
  8
DXF_US-1711_V2
 62
    18
 10
0.3364493166999999
 20
-0.7138557774
 30
0.0
 40
0.1875000000000001
 50
0.0
 51
90.0
  0
LINE
  5
5B
  8
DXF_US-1711_V2
 62
    18
 10
0.2459493167
 20
-1.0013557774
 30
0.0
 11
0.5239493167
 21
-0.7233557774
 31
0.0
  0
ARC
  5
5C
  8
DXF_US-1711_V2
 62
    18
 10
6.684349096799999
 20
-2.585593415099998
 30
0.0
 40
1.8125
 50
269.9999917169
 51
0.000008321556147
  0
LINE
  5
5D
  8
DXF_US-1711_V2
 62
     1
 10
2.6711876494
 20
0.3408555713
 30
0.0
 11
2.6711876494
 21
0.7236442226
 31
0.0
  0
TEXT
  5
5F
  8
DXF_US-1711_V2
 62
     5
 10
1.3110001506
 20
2.0160249499
 30
0.0
 40
0.125
  1
COUNTERTOP
  7
TEXT30
  0
LINE
  5
60
  8
DXF_US-1711_V2
 62
     1
 10
2.6711876494
 20
0.3408555713
 30
0.0
 11
2.5807431843
 21
0.2061754366
 31
0.0
  0
LINE
  5
61
  8
DXF_US-1711_V2
 62
     5
 10
0.3354613104
 20
0.7236442226
 30
0.0
 11
1.0310213546
 21
1.9234523727
 31
0.0
  0
LINE
  5
62
  8
DXF_US-1711_V2
 62
     5
 10
1.0310213546
 20
1.9234523727
 30
0.0
 11
1.2610054112
 21
1.9234523727
 31
0.0
  0
ARC
  5
63
  8
DXF_US-1711_V2
 62
    18
 10
6.684349096799999
 20
2.414407199299999
 30
0.0
 40
1.812499999999998
 50
0.0000082776426155
 51
90.00002484384254
  0
LINE
  5
64
  8
DXF_US-1711_V2
 62
    18
 10
-1.2161144517
 20
-2.9657498508
 30
0.0
 11
-1.1244094267
 21
-2.8740448258
 31
0.0
  0
LINE
  5
65
  8
DXF_US-1711_V2
 62
    18
 10
-1.3249781993
 20
-1.9053818804
 30
0.0
 11
-1.0117808952
 21
-1.5921845763
 31
0.0
  0
LINE
  5
66
  8
DXF_US-1711_V2
 62
    18
 10
-1.3410679895
 20
-2.0885047731
 30
0.0
 11
-1.0278706854
 21
-1.7753074691
 31
0.0
  0
LINE
  5
67
  8
DXF_US-1711_V2
 62
    18
 10
-1.2927986188
 20
-1.5391360948
 30
0.0
 11
-0.9801262229
 21
-1.2319129332
 31
0.0
  0
LINE
  5
68
  8
DXF_US-1711_V2
 62
    18
 10
-1.3571577797
 20
-2.2716276659
 30
0.0
 11
-1.0439604756
 21
-1.9584303619
 31
0.0
  0
LINE
  5
69
  8
DXF_US-1711_V2
 62
     1
 10
-1.1233624943
 20
-3.0925108593
 30
0.0
 11
-0.9323338087
 21
-3.1843843249
 31
0.0
  0
LINE
  5
6A
  8
DXF_US-1711_V2
 62
    18
 10
-1.2606190384
 20
-1.1728903092
 30
0.0
 11
-0.6140845066
 21
-0.5263557774
 31
0.0
  0
DIMENSION
  5
6C
  8
DXF_US-1711_V2
 62
     5
  2
*D1
 10
-1.2036706618
 20
-0.6770368549
 30
0.0
 11
-0.3636706618
 21
-0.6770368549
 31
0.0
 70
    32
  3
ROTATEDDIM12
 13
-1.3288123506
 23
-0.5263557774
 33
0.0
 14
-1.2036706618
 24
-0.5263557774
 34
0.0
  0
ARC
  5
7B
  8
DXF_US-1711_V2
 62
    18
 10
-0.7285391603999998
 20
-1.2539019448
 30
0.0
 40
0.2525461674000004
 50
90.0
 51
175.0049731570999
  0
LINE
  5
7C
  8
DXF_US-1711_V2
 62
    18
 10
-1.1416119636
 20
-3.0698322338
 30
0.0
 11
-0.9801262229
 21
-1.2319129332
 31
0.0
  0
LINE
  5
7D
  8
DXF_US-1711_V2
 62
    18
 10
-1.2445292482
 20
-0.9897674164
 30
0.0
 11
-0.7811176092
 21
-0.5263557774
 31
0.0
  0
LINE
  5
7E
  8
DXF_US-1711_V2
 62
    18
 10
-1.3732475699
 20
-2.4547505587
 30
0.0
 11
-1.0600502659
 21
-2.1415532547
 31
0.0
  0
LINE
  5
7F
  8
DXF_US-1711_V2
 62
    18
 10
-1.308888409
 20
-1.7222589876
 30
0.0
 11
-0.995691105
 21
-1.4090616835
 31
0.0
  0
LINE
  5
80
  8
DXF_US-1711_V2
 62
    18
 10
-1.2767088286
 20
-1.356013202
 30
0.0
 11
-0.447051404
 21
-0.5263557774
 31
0.0
  0
LINE
  5
81
  8
DXF_US-1711_V2
 62
    18
 10
-1.2284394579
 20
-0.8066445237
 30
0.0
 11
-0.9481507117
 21
-0.5263557774
 31
0.0
  0
POINT
  5
82
  8
DXF_US-1711_V2
 62
    18
 10
-0.2539189938
 20
-1.0013557774
 30
0.0
  0
LINE
  5
83
  8
DXF_US-1711_V2
 62
    18
 10
-0.5879851989
 20
-1.0013557774
 30
0.0
 11
-0.1129851989
 21
-0.5263557774
 31
0.0
  0
LINE
  5
84
  8
DXF_US-1711_V2
 62
    18
 10
-0.7461019291
 20
-1.0019671997
 30
0.0
 11
-0.2704905069
 21
-0.5263557774
 31
0.0
  0
LINE
  5
85
  8
DXF_US-1711_V2
 62
     1
 10
-1.2405499943
 20
-2.9323546093
 30
0.0
 11
-1.1500689835
 21
-3.0560119908
 31
0.0
  0
LINE
  5
86
  8
DXF_US-1711_V2
 62
     1
 10
-1.1500689835
 20
-3.0560119908
 30
0.0
 11
-1.1233624943
 21
-3.0925108593
 31
0.0
  0
LINE
  5
87
  8
DXF_US-1711_V2
 62
    18
 10
-1.3156811894
 20
-2.8982834859
 30
0.0
 11
-1.1083196365
 21
-2.690921933
 31
0.0
  0
LINE
  5
88
  8
DXF_US-1711_V2
 62
     1
 10
-1.5764874943
 20
-2.7800108593
 30
0.0
 11
-1.4085187443
 21
-2.8561827343
 31
0.0
  0
TEXT
  5
8A
  8
DXF_US-1711_V2
 62
     5
 10
-3.1889998494
 20
-1.8339750501
 30
0.0
 40
0.125
  1
SINK
  7
TEXT59
  0
LINE
  5
8B
  8
DXF_US-1711_V2
 62
     5
 10
-1.3372105577
 20
-2.0446021458
 30
0.0
 11
-2.7519588359
 21
-1.9202976273
 31
0.0
  0
LINE
  5
8C
  8
DXF_US-1711_V2
 62
    18
 10
-1.3893373601
 20
-2.6378734515
 30
0.0
 11
-1.0761400561
 21
-2.3246761474
 31
0.0
  0
TEXT
  5
8E
  8
DXF_US-1711_V2
 62
    18
 10
-2.9591082873
 20
-3.581160223
 30
0.0
 40
0.125
  1
NOTE: THIS TEMPLATE IS FOR THE TYPE OF INSTALLATION SHOWN ABOVE.\PCOUNTERTOP WILL OVERHANG SINK BOWLS BY APPROXIMATELY 1/8".\PCHECK DIMENSIONS FOR PROPER FIT.
  7
TEXT63
  0
LINE
  5
8F
  8
DXF_US-1711_V2
 62
     3
 10
-1.3288123506
 20
-0.5263557774
 30
0.0
 11
2.6711876494
 21
-0.5263557774
 31
0.0
  0
LINE
  5
90
  8
DXF_US-1711_V2
 62
     3
 10
2.4296323235
 20
0.7236442226
 30
0.0
 11
2.6711876494
 21
0.4820888967
 31
0.0
  0
LINE
  5
91
  8
DXF_US-1711_V2
 62
     3
 10
2.0955661184
 20
0.7236442226
 30
0.0
 11
2.593716477
 21
0.2254938639
 31
0.0
  0
LINE
  5
92
  8
DXF_US-1711_V2
 62
     3
 10
1.7614999132
 20
0.7236442226
 30
0.0
 11
2.6711876494
 21
-0.1860435136
 31
0.0
  0
LINE
  5
93
  8
DXF_US-1711_V2
 62
     3
 10
1.4274337081
 20
0.7236442226
 30
0.0
 11
2.6711876494
 21
-0.5201097187
 31
0.0
  0
LINE
  5
94
  8
DXF_US-1711_V2
 62
     3
 10
1.093367503
 20
0.7236442226
 30
0.0
 11
2.343367503
 21
-0.5263557774
 31
0.0
  0
LINE
  5
95
  8
DXF_US-1711_V2
 62
     3
 10
0.7593012978
 20
0.7236442226
 30
0.0
 11
2.0093012978
 21
-0.5263557774
 31
0.0
  0
LINE
  5
96
  8
DXF_US-1711_V2
 62
     3
 10
0.4252350927
 20
0.7236442226
 30
0.0
 11
1.6752350927
 21
-0.5263557774
 31
0.0
  0
LINE
  5
97
  8
DXF_US-1711_V2
 62
     3
 10
0.0911688876
 20
0.7236442226
 30
0.0
 11
1.3411688876
 21
-0.5263557774
 31
0.0
  0
LINE
  5
98
  8
DXF_US-1711_V2
 62
     3
 10
-0.2428973175
 20
0.7236442226
 30
0.0
 11
1.0071026825
 21
-0.5263557774
 31
0.0
  0
LINE
  5
99
  8
DXF_US-1711_V2
 62
     3
 10
-0.5769635227
 20
0.7236442226
 30
0.0
 11
0.6730364773
 21
-0.5263557774
 31
0.0
  0
LINE
  5
9A
  8
DXF_US-1711_V2
 62
     3
 10
-0.9110297278
 20
0.7236442226
 30
0.0
 11
0.3389702722
 21
-0.5263557774
 31
0.0
  0
LINE
  5
9B
  8
DXF_US-1711_V2
 62
     3
 10
-1.2450959329
 20
0.7236442226
 30
0.0
 11
0.0049040671
 21
-0.5263557774
 31
0.0
  0
LINE
  5
9C
  8
DXF_US-1711_V2
 62
     3
 10
-1.3288123506
 20
0.4732944351
 30
0.0
 11
-0.3291621381
 21
-0.5263557774
 31
0.0
  0
LINE
  5
9D
  8
DXF_US-1711_V2
 62
     3
 10
-1.3288123506
 20
0.13922823
 30
0.0
 11
-0.6632283432
 21
-0.5263557774
 31
0.0
  0
LINE
  5
9E
  8
DXF_US-1711_V2
 62
     3
 10
-1.3288123506
 20
-0.1948379751
 30
0.0
 11
-0.9972945483
 21
-0.5263557774
 31
0.0
  0
LINE
  5
9F
  8
DXF_US-1711_V2
 62
     3
 10
2.6711876494
 20
0.7236442226
 30
0.0
 11
-1.3288123506
 21
0.7236442226
 31
0.0
  0
LINE
  5
A0
  8
DXF_US-1711_V2
 62
    18
 10
-1.203707561
 20
-0.5263557774
 30
-1.0
 11
0.3364493738
 21
-0.5263557774
 31
-1.0
  0
LINE
  5
A1
  8
DXF_US-1711_V2
 62
    18
 10
-1.203707561
 20
-0.5263557774
 30
-1.0
 11
0.3364493167
 21
-0.525936107
 31
-1.0
  0
LINE
  5
A2
  8
DXF_US-1711_V2
 62
    18
 10
-0.2539189938
 20
-1.0013557774
 30
0.0
 11
0.2210810062
 21
-0.5263557774
 31
0.0
  0
LINE
  5
A3
  8
DXF_US-1711_V2
 62
    18
 10
-0.0868858912
 20
-1.0013557774
 30
0.0
 11
0.3823970897
 21
-0.5320727965
 31
0.0
  0
LINE
  5
A4
  8
DXF_US-1711_V2
 62
    18
 10
-0.4209520963
 20
-1.0013557774
 30
0.0
 11
0.0540479037
 21
-0.5263557774
 31
0.0
  0
LINE
  5
A5
  8
DXF_US-1711_V2
 62
    18
 10
-0.7285391604
 20
-1.0013557774
 30
0.0
 11
0.5239493167
 21
-1.0013557774
 31
0.0
  0
TEXT
  5
A7
  8
DXF_US-1711_V2
 62
    18
 10
-0.875
 20
3.0
 30
0.0
 40
0.125
  1
UNDERMOUNT KITCHEN SINK 
  7
TEXT87
  0
TEXT
  5
A9
  8
DXF_US-1711_V2
 62
    18
 10
-1.125
 20
4.0
 30
0.0
 40
0.125
  1
CUTOUT TEMPLATE FOR MODEL #: 
  7
TEXT88
  0
TEXT
  5
AB
  8
DXF_US-1711_V2
 62
    18
 10
-0.75
 20
3.625
 30
0.0
 40
0.3333333432674408
  1
US-1711
  7
TEXT89
  0
LINE
  5
AC
  8
DXF_US-1711_V2
 62
    18
 10
-5.0656512104
 20
-4.3985
 30
0.0
 11
6.6843487896
 21
-4.3985
 31
0.0
  0
LINE
  5
AD
  8
DXF_US-1711_V2
 62
    18
 10
6.6843487896
 20
4.2265
 30
0.0
 11
-5.0656512104
 21
4.2265
 31
0.0
  0
DIMENSION
  5
AF
  8
DXF_US-1711_V2
 62
     5
  2
*D2
 10
8.4965
 20
4.910861070871647
 30
0.0
 11
0.8091742412000089
 21
4.910861070871647
 31
0.0
 70
    32
  3
ROTATEDDIM13
 13
-6.878151517599981
 23
2.414406937271647
 33
0.0
 14
8.4965
 24
2.4144068921
 34
0.0
  0
LINE
  5
BD
  8
DXF_US-1711_V2
 62
     3
 10
-1.3288123506
 20
0.7236442226
 30
0.0
 11
-1.3288123506
 21
-0.5263557774
 31
0.0
  0
LINE
  5
BE
  8
DXF_US-1711_V2
 62
    18
 10
-6.8785
 20
2.4144068921
 30
0.0
 11
-6.8785
 21
-2.5855931079
 31
0.0
  0
DIMENSION
  5
C0
  8
DXF_US-1711_V2
 62
     5
  2
*D3
 10
-7.7699970124
 20
-4.3985
 30
0.0
 11
-7.7699970124
 21
-0.0859999999999994
 31
0.0
 70
    33
  3
ALIGNEDDIM14
 13
-5.0656512104
 23
4.226500000000001
 33
0.0
 14
-5.0656512104
 24
-4.3985
 34
0.0
  0
LINE
  5
CE
  8
DXF_US-1711_V2
 62
     1
 10
2.7608678825
 20
-0.0295147991
 30
0.0
 11
2.6711876494
 21
-0.1843969539
 31
0.0
  0
LINE
  5
CF
  8
DXF_US-1711_V2
 62
     1
 10
2.5807431843
 20
0.2061754366
 30
0.0
 11
2.7608678825
 21
-0.0295147991
 31
0.0
  0
LINE
  5
D0
  8
DXF_US-1711_V2
 62
    18
 10
8.4965
 20
-2.5855931079
 30
0.0
 11
8.4965
 21
2.4144068921
 31
0.0
  0
LINE
  5
D1
  8
DXF_US-1711_V2
 62
    18
 10
-1.4054271504
 20
-2.8209963443
 30
0.0
 11
-1.0922298463
 21
-2.5077990402
 31
0.0
  0
LINE
  5
D2
  8
DXF_US-1711_V2
 62
    18
 10
-1.4084818452
 20
-2.8557630639
 30
0.0
 11
-1.2036706618
 21
-0.5263557774
 31
0.0
  0
LINE
  5
D3
  8
DXF_US-1711_V2
 62
     1
 10
-1.4085187443
 20
-2.8561827343
 30
0.0
 11
-1.2405499943
 21
-2.9323546093
 31
0.0
  0
SOLID
  5
D4
  8
DXF_US-1711_V2
 62
    18
 10
0.3354613104
 20
0.7236442226
 30
0.0
 11
0.4067756178063844
 21
0.9712740260549713
 31
0.0
 12
0.3354613104
 22
0.7236442226
 32
0.0
 13
0.5149173715020905
 23
0.9085814339278526
 33
0.0
  0
POLYLINE
  5
D5
  8
DXF_US-1711_V2
 62
    18
 10
0.0
 20
0.0
 30
0.0
 66
     1
 70
     8
  0
VERTEX
  5
D6
  8
DXF_US-1711_V2
 62
    18
 10
0.3354613184928894
 20
0.7236441969871521
 30
0.0
 70
    32
  0
VERTEX
  5
D7
  8
DXF_US-1711_V2
 62
    18
 10
0.4067756235599518
 20
0.9712740182876587
 30
0.0
 70
    32
  0
VERTEX
  5
D8
  8
DXF_US-1711_V2
 62
    18
 10
0.5149173736572266
 20
0.9085814356803894
 30
0.0
 70
    32
  0
VERTEX
  5
D9
  8
DXF_US-1711_V2
 62
    18
 10
0.3354613184928894
 20
0.7236441969871521
 30
0.0
 70
    32
  0
VERTEX
  5
DA
  8
DXF_US-1711_V2
 62
    18
 10
0.3354613184928894
 20
0.7236441969871521
 30
0.0
 70
    32
  0
SEQEND
  5
DB
  8
DXF_US-1711_V2
 62
    18
  0
SOLID
  5
DC
  8
DXF_US-1711_V2
 62
    18
 10
-1.3372105577
 20
-2.0446021458
 30
0.0
 11
-1.59172149750895
 21
-2.08498074802401
 31
0.0
 12
-1.3372105577
 22
-2.0446021458
 32
0.0
 13
-1.580780729166255
 23
-1.960460470205209
 33
0.0
  0
POLYLINE
  5
DD
  8
DXF_US-1711_V2
 62
    18
 10
0.0
 20
0.0
 30
0.0
 66
     1
 70
     8
  0
VERTEX
  5
DE
  8
DXF_US-1711_V2
 62
    18
 10
-1.337210536003113
 20
-2.044602155685425
 30
0.0
 70
    32
  0
VERTEX
  5
DF
  8
DXF_US-1711_V2
 62
    18
 10
-1.591721534729004
 20
-2.084980726242065
 30
0.0
 70
    32
  0
VERTEX
  5
E0
  8
DXF_US-1711_V2
 62
    18
 10
-1.580780744552612
 20
-1.960460424423218
 30
0.0
 70
    32
  0
VERTEX
  5
E1
  8
DXF_US-1711_V2
 62
    18
 10
-1.337210536003113
 20
-2.044602155685425
 30
0.0
 70
    32
  0
VERTEX
  5
E2
  8
DXF_US-1711_V2
 62
    18
 10
-1.337210536003113
 20
-2.044602155685425
 30
0.0
 70
    32
  0
SEQEND
  5
E3
  8
DXF_US-1711_V2
 62
    18
  0
LINE
  5
E4
  8
LAYER1
 62
   150
 10
6.6843487896
 20
4.2265
 30
0.0
 11
-5.0656512104
 21
4.226500000000001
 31
0.0
  0
VIEWPORT
  5
3E
 67
     1
  8
0
 10
0.0
 20
0.0
 30
0.0
 40
1.0
 41
1.0
 68
     1
 69
     1
1001
ACAD
1000
MVIEW
1002
{
1070
    16
1010
0.0
1020
0.0
1030
0.0
1020
0.0
1030
0.0
1010
0.0
1020
0.0
1030
1.0
1020
0.0
1030
1.0
1040
0.0
1040
1.0
1040
0.0
1040
0.0
1040
50.0
1040
0.0
1040
0.0
1070
     0
1070
   100
1070
     0
1070
     3
1070
     0
1070
     0
1070
     0
1070
     0
1040
0.0
1040
0.0
1040
0.0
1040
0.5
1040
0.5
1040
0.0
1040
0.0
1070
     0
1002
{
1002
}
1002
}
  0
ENDSEC
  0
EOF
