  0
SECTION
  2
HEADER
  9
$ACADVER
  1
AC1012
  9
$DWGCODEPAGE
  3
ANSI_1252
  9
$INSBASE
 10
0.0
 20
0.0
 30
0.0
  9
$EXTMIN
 10
24.207603
 20
11.313208
 30
0.0
  9
$EXTMAX
 10
31.545997
 20
23.627651
 30
0.0
  9
$LIMMIN
 10
0.0
 20
0.0
  9
$LIMMAX
 10
34.0
 20
21.0
  9
$ORTHOMODE
 70
     0
  9
$REGENMODE
 70
     1
  9
$FILLMODE
 70
     1
  9
$QTEXTMODE
 70
     0
  9
$MIRRTEXT
 70
     1
  9
$DRAGMODE
 70
     2
  9
$LTSCALE
 40
1.0
  9
$OSMODE
 70
    33
  9
$ATTMODE
 70
     1
  9
$TEXTSIZE
 40
0.125
  9
$TRACEWID
 40
0.05
  9
$TEXTSTYLE
  7
ROMANS
  9
$CLAYER
  8
OBJECTS
  9
$CELTYPE
  6
BYLAYER
  9
$CECOLOR
 62
   256
  9
$CELTSCALE
 40
1.0
  9
$DELOBJ
 70
     1
  9
$DISPSILH
 70
     0
  9
$DIMSCALE
 40
1.0
  9
$DIMASZ
 40
0.3
  9
$DIMEXO
 40
0.25
  9
$DIMDLI
 40
0.375
  9
$DIMRND
 40
0.0
  9
$DIMDLE
 40
0.0
  9
$DIMEXE
 40
0.25
  9
$DIMTP
 40
0.0
  9
$DIMTM
 40
0.0
  9
$DIMTXT
 40
0.5
  9
$DIMCEN
 40
0.0625
  9
$DIMTSZ
 40
0.0
  9
$DIMTOL
 70
     0
  9
$DIMLIM
 70
     0
  9
$DIMTIH
 70
     1
  9
$DIMTOH
 70
     1
  9
$DIMSE1
 70
     0
  9
$DIMSE2
 70
     0
  9
$DIMTAD
 70
     0
  9
$DIMZIN
 70
     0
  9
$DIMBLK
  1

  9
$DIMASO
 70
     1
  9
$DIMSHO
 70
     0
  9
$DIMPOST
  1

  9
$DIMAPOST
  1

  9
$DIMALT
 70
     1
  9
$DIMALTD
 70
     0
  9
$DIMALTF
 40
25.4
  9
$DIMLFAC
 40
1.0
  9
$DIMTOFL
 70
     0
  9
$DIMTVP
 40
0.0
  9
$DIMTIX
 70
     0
  9
$DIMSOXD
 70
     0
  9
$DIMSAH
 70
     0
  9
$DIMBLK1
  1

  9
$DIMBLK2
  1

  9
$DIMSTYLE
  2
STANDARD
  9
$DIMCLRD
 70
   256
  9
$DIMCLRE
 70
   256
  9
$DIMCLRT
 70
     0
  9
$DIMTFAC
 40
1.0
  9
$DIMGAP
 40
0.4
  9
$DIMJUST
 70
     0
  9
$DIMSD1
 70
     0
  9
$DIMSD2
 70
     0
  9
$DIMTOLJ
 70
     1
  9
$DIMTZIN
 70
     0
  9
$DIMALTZ
 70
     0
  9
$DIMALTTZ
 70
     0
  9
$DIMFIT
 70
     3
  9
$DIMUPT
 70
     0
  9
$DIMUNIT
 70
     5
  9
$DIMDEC
 70
     3
  9
$DIMTDEC
 70
     4
  9
$DIMALTU
 70
     2
  9
$DIMALTTD
 70
     2
  9
$DIMTXSTY
  7
ROMANS
  9
$DIMAUNIT
 70
     0
  9
$LUNITS
 70
     2
  9
$LUPREC
 70
     4
  9
$SKETCHINC
 40
0.001
  9
$FILLETRAD
 40
0.0
  9
$AUNITS
 70
     0
  9
$AUPREC
 70
     0
  9
$MENU
  1
zurn
  9
$ELEVATION
 40
0.0
  9
$PELEVATION
 40
0.0
  9
$THICKNESS
 40
0.0
  9
$LIMCHECK
 70
     0
  9
$BLIPMODE
 70
     0
  9
$CHAMFERA
 40
0.0
  9
$CHAMFERB
 40
0.0
  9
$CHAMFERC
 40
0.0
  9
$CHAMFERD
 40
0.0
  9
$SKPOLY
 70
     0
  9
$TDCREATE
 40
2448734.266128588
  9
$TDUPDATE
 40
2451360.354624340
  9
$TDINDWG
 40
0.0347726273
  9
$TDUSRTIMER
 40
0.0347726273
  9
$USRTIMER
 70
     1
  9
$ANGBASE
 50
0.0
  9
$ANGDIR
 70
     0
  9
$PDMODE
 70
     0
  9
$PDSIZE
 40
0.0
  9
$PLINEWID
 40
0.0
  9
$COORDS
 70
     2
  9
$SPLFRAME
 70
     0
  9
$SPLINETYPE
 70
     6
  9
$SPLINESEGS
 70
     8
  9
$ATTDIA
 70
     0
  9
$ATTREQ
 70
     1
  9
$HANDLING
 70
     1
  9
$HANDSEED
  5
D12
  9
$SURFTAB1
 70
     6
  9
$SURFTAB2
 70
     6
  9
$SURFTYPE
 70
     6
  9
$SURFU
 70
     6
  9
$SURFV
 70
     6
  9
$UCSNAME
  2

  9
$UCSORG
 10
0.0
 20
0.0
 30
0.0
  9
$UCSXDIR
 10
1.0
 20
0.0
 30
0.0
  9
$UCSYDIR
 10
0.0
 20
1.0
 30
0.0
  9
$PUCSNAME
  2

  9
$PUCSORG
 10
0.0
 20
0.0
 30
0.0
  9
$PUCSXDIR
 10
1.0
 20
0.0
 30
0.0
  9
$PUCSYDIR
 10
0.0
 20
1.0
 30
0.0
  9
$USERI1
 70
     0
  9
$USERI2
 70
     0
  9
$USERI3
 70
     0
  9
$USERI4
 70
     0
  9
$USERI5
 70
     0
  9
$USERR1
 40
0.0
  9
$USERR2
 40
0.0
  9
$USERR3
 40
0.0
  9
$USERR4
 40
0.0
  9
$USERR5
 40
0.0
  9
$WORLDVIEW
 70
     1
  9
$SHADEDGE
 70
     3
  9
$SHADEDIF
 70
    70
  9
$TILEMODE
 70
     1
  9
$MAXACTVP
 70
    16
  9
$PINSBASE
 10
0.0
 20
0.0
 30
0.0
  9
$PLIMCHECK
 70
     0
  9
$PEXTMIN
 10
1.000000E+20
 20
1.000000E+20
 30
1.000000E+20
  9
$PEXTMAX
 10
-1.000000E+20
 20
-1.000000E+20
 30
-1.000000E+20
  9
$PLIMMIN
 10
0.0
 20
0.0
  9
$PLIMMAX
 10
12.0
 20
9.0
  9
$UNITMODE
 70
     0
  9
$VISRETAIN
 70
     0
  9
$PLINEGEN
 70
     0
  9
$PSLTSCALE
 70
     0
  9
$TREEDEPTH
 70
  3020
  9
$PICKSTYLE
 70
     1
  9
$CMLSTYLE
  2
STANDARD
  9
$CMLJUST
 70
     0
  9
$CMLSCALE
 40
1.0
  9
$SAVEIMAGES
 70
     1
  0
ENDSEC
  0
SECTION
  2
CLASSES
  0
CLASS
  1
DICTIONARYVAR
  2
AcDbDictionaryVar
  3
"AutoCAD"
 90
    32768
280
     0
281
     0
  0
ENDSEC
  0
SECTION
  2
TABLES
  0
TABLE
  2
VPORT
  5
8
100
AcDbSymbolTable
 70
     7
  0
VPORT
  5
D11
100
AcDbSymbolTableRecord
100
AcDbViewportTableRecord
  2
*ACTIVE
 70
     0
 10
0.0
 20
0.0
 11
1.0
 21
1.0
 12
27.8768
 22
17.470429
 13
0.0
 23
0.0
 14
0.0312
 24
0.0312
 15
0.5
 25
0.5
 16
0.0
 26
0.0
 36
1.0
 17
0.0
 27
0.0
 37
0.0
 40
12.410525
 41
1.53776
 42
50.0
 43
0.0
 44
0.0
 50
0.0
 51
0.0
 71
     0
 72
  5000
 73
     1
 74
     0
 75
     0
 76
     0
 77
     0
 78
     0
  0
ENDTAB
  0
TABLE
  2
LTYPE
  5
5
100
AcDbSymbolTable
 70
     1
  0
LTYPE
  5
11
100
AcDbSymbolTableRecord
100
AcDbLinetypeTableRecord
  2
BYBLOCK
 70
     0
  3

 72
    65
 73
     0
 40
0.0
  0
LTYPE
  5
12
100
AcDbSymbolTableRecord
100
AcDbLinetypeTableRecord
  2
BYLAYER
 70
     0
  3

 72
    65
 73
     0
 40
0.0
  0
LTYPE
  5
13
100
AcDbSymbolTableRecord
100
AcDbLinetypeTableRecord
  2
CONTINUOUS
 70
     0
  3
Solid line
 72
    65
 73
     0
 40
0.0
  0
ENDTAB
  0
TABLE
  2
LAYER
  5
2
100
AcDbSymbolTable
 70
    15
  0
LAYER
  5
E
100
AcDbSymbolTableRecord
100
AcDbLayerTableRecord
  2
0
 70
     0
 62
     7
  6
CONTINUOUS
  0
LAYER
  5
25
100
AcDbSymbolTableRecord
100
AcDbLayerTableRecord
  2
DIM
 70
     0
 62
     2
  6
CONTINUOUS
  0
LAYER
  5
2C
100
AcDbSymbolTableRecord
100
AcDbLayerTableRecord
  2
OBJECTS
 70
     0
 62
     3
  6
CONTINUOUS
  0
LAYER
  5
2E
100
AcDbSymbolTableRecord
100
AcDbLayerTableRecord
  2
DEFPOINTS
 70
     0
 62
     7
  6
CONTINUOUS
  0
LAYER
  5
31
100
AcDbSymbolTableRecord
100
AcDbLayerTableRecord
  2
FULL
 70
     1
 62
     7
  6
CONTINUOUS
  0
ENDTAB
  0
TABLE
  2
STYLE
  5
3
100
AcDbSymbolTable
 70
     4
  0
STYLE
  5
F
100
AcDbSymbolTableRecord
100
AcDbTextStyleTableRecord
  2
STANDARD
 70
     0
 40
0.0
 41
1.0
 50
0.0
 71
     0
 42
0.2
  3
txt
  4

  0
STYLE
  5
22
100
AcDbSymbolTableRecord
100
AcDbTextStyleTableRecord
  2
TXT
 70
     0
 40
0.0
 41
1.0
 50
0.0
 71
     0
 42
0.125
  3
txt
  4

  0
STYLE
  5
23
100
AcDbSymbolTableRecord
100
AcDbTextStyleTableRecord
  2
ROMANS
 70
     0
 40
0.0
 41
0.85
 50
0.0
 71
     0
 42
0.125
  3
romans.shx
  4

  0
ENDTAB
  0
TABLE
  2
VIEW
  5
6
100
AcDbSymbolTable
 70
     0
  0
ENDTAB
  0
TABLE
  2
UCS
  5
7
100
AcDbSymbolTable
 70
     0
  0
ENDTAB
  0
TABLE
  2
APPID
  5
9
100
AcDbSymbolTable
 70
     1
  0
APPID
  5
10
100
AcDbSymbolTableRecord
100
AcDbRegAppTableRecord
  2
ACAD
 70
     0
  0
ENDTAB
  0
TABLE
  2
DIMSTYLE
  5
A
100
AcDbSymbolTable
 70
     1
  0
DIMSTYLE
105
806
102
{ACAD_REACTORS
330
9D5
330
9FB
330
BC6
330
BD4
330
BE2
330
BF0
330
BFE
330
C0C
330
CAA
330
CCF
102
}
100
AcDbSymbolTableRecord
100
AcDbDimStyleTableRecord
  2
STANDARD
 70
     0
  3

  4

  5

  6

  7

 40
1.0
 41
0.3
 42
0.25
 43
0.375
 44
0.25
 45
0.0
 46
0.0
 47
0.0
 48
0.0
140
0.5
141
0.0625
142
0.0
143
25.4
144
1.0
145
0.0
146
1.0
147
0.4
 71
     0
 72
     0
 73
     1
 74
     1
 75
     0
 76
     0
 77
     0
 78
     0
170
     1
171
     0
172
     0
173
     0
174
     0
175
     0
176
   256
177
   256
178
     0
270
     5
271
     3
272
     4
273
     2
274
     2
340
23
275
     0
280
     0
281
     0
282
     0
283
     1
284
     0
285
     0
286
     0
287
     3
288
     0
  0
ENDTAB
  0
TABLE
  2
BLOCK_RECORD
  5
1
100
AcDbSymbolTable
 70
    30
  0
BLOCK_RECORD
  5
17
100
AcDbSymbolTableRecord
100
AcDbBlockTableRecord
  2
*MODEL_SPACE
  0
BLOCK_RECORD
  5
14
100
AcDbSymbolTableRecord
100
AcDbBlockTableRecord
  2
*PAPER_SPACE
  0
BLOCK_RECORD
  5
9C8
100
AcDbSymbolTableRecord
100
AcDbBlockTableRecord
  2
*D13
  0
BLOCK_RECORD
  5
9EE
100
AcDbSymbolTableRecord
100
AcDbBlockTableRecord
  2
*D14
  0
BLOCK_RECORD
  5
BB9
100
AcDbSymbolTableRecord
100
AcDbBlockTableRecord
  2
*D20
  0
BLOCK_RECORD
  5
BC7
100
AcDbSymbolTableRecord
100
AcDbBlockTableRecord
  2
*D21
  0
BLOCK_RECORD
  5
BD5
100
AcDbSymbolTableRecord
100
AcDbBlockTableRecord
  2
*D22
  0
BLOCK_RECORD
  5
BE3
100
AcDbSymbolTableRecord
100
AcDbBlockTableRecord
  2
*D23
  0
BLOCK_RECORD
  5
BF1
100
AcDbSymbolTableRecord
100
AcDbBlockTableRecord
  2
*D24
  0
BLOCK_RECORD
  5
BFF
100
AcDbSymbolTableRecord
100
AcDbBlockTableRecord
  2
*D25
  0
BLOCK_RECORD
  5
C9D
100
AcDbSymbolTableRecord
100
AcDbBlockTableRecord
  2
*D26
  0
BLOCK_RECORD
  5
CD0
100
AcDbSymbolTableRecord
100
AcDbBlockTableRecord
  2
*D28
  0
ENDTAB
  0
ENDSEC
  0
SECTION
  2
BLOCKS
  0
BLOCK
  5
34
100
AcDbEntity
  8
0
100
AcDbBlockBegin
  2
*MODEL_SPACE
 70
     0
 10
0.0
 20
0.0
 30
0.0
  3
*MODEL_SPACE
  1

  0
ENDBLK
  5
35
100
AcDbEntity
  8
0
100
AcDbBlockEnd
  0
BLOCK
  5
32
100
AcDbEntity
 67
     1
  8
0
100
AcDbBlockBegin
  2
*PAPER_SPACE
 70
     0
 10
0.0
 20
0.0
 30
0.0
  3
*PAPER_SPACE
  1

  0
ENDBLK
  5
33
100
AcDbEntity
 67
     1
  8
0
100
AcDbBlockEnd
  0
BLOCK
  5
D05
100
AcDbEntity
  8
0
100
AcDbBlockBegin
  2
*D13
 70
     1
 10
0.0
 20
0.0
 30
0.0
  3
*D13
  1

  0
LINE
  5
D06
100
AcDbEntity
  8
0
  6
BYBLOCK
100
AcDbLine
 10
26.747124
 20
21.531844
 30
0.0
 11
31.543877
 21
21.531844
 31
0.0
  0
LINE
  5
D07
100
AcDbEntity
  8
0
  6
BYBLOCK
100
AcDbLine
 10
27.369839
 20
13.031844
 30
0.0
 11
31.543877
 21
13.031844
 31
0.0
  0
LINE
  5
D08
100
AcDbEntity
  8
0
  6
BYBLOCK
100
AcDbLine
 10
31.293877
 20
21.231844
 30
0.0
 11
31.293877
 21
17.931844
 31
0.0
  0
LINE
  5
D09
100
AcDbEntity
  8
0
  6
BYBLOCK
100
AcDbLine
 10
31.293877
 20
13.331844
 30
0.0
 11
31.293877
 21
16.631844
 31
0.0
  0
SOLID
  5
D0A
100
AcDbEntity
  8
0
  6
BYBLOCK
100
AcDbTrace
 10
31.243877
 20
21.231844
 30
0.0
 11
31.343877
 21
21.231844
 31
0.0
 12
31.293877
 22
21.531844
 32
0.0
 13
31.293877
 23
21.531844
 33
0.0
  0
SOLID
  5
D0B
100
AcDbEntity
  8
0
  6
BYBLOCK
100
AcDbTrace
 10
31.243877
 20
13.331844
 30
0.0
 11
31.343877
 21
13.331844
 31
0.0
 12
31.293877
 22
13.031844
 32
0.0
 13
31.293877
 23
13.031844
 33
0.0
  0
MTEXT
  5
D0C
100
AcDbEntity
  8
0
  6
BYBLOCK
 62
     0
100
AcDbMText
 10
31.293877
 20
17.281844
 30
0.0
 40
0.5
 41
0.0
 71
     5
 72
     1
  1
\A1;C
  7
ROMANS
  0
POINT
  5
D0D
100
AcDbEntity
  8
DEFPOINTS
  6
BYBLOCK
 62
     0
100
AcDbPoint
 10
26.497124
 20
21.531844
 30
0.0
  0
POINT
  5
D0E
100
AcDbEntity
  8
DEFPOINTS
  6
BYBLOCK
 62
     0
100
AcDbPoint
 10
27.119839
 20
13.031844
 30
0.0
  0
POINT
  5
D0F
100
AcDbEntity
  8
DEFPOINTS
  6
BYBLOCK
 62
     0
100
AcDbPoint
 10
31.293877
 20
13.031844
 30
0.0
  0
ENDBLK
  5
D10
100
AcDbEntity
  8
0
100
AcDbBlockEnd
  0
BLOCK
  5
B9F
100
AcDbEntity
  8
0
100
AcDbBlockBegin
  2
*D14
 70
     1
 10
0.0
 20
0.0
 30
0.0
  3
*D14
  1

  0
LINE
  5
BA0
100
AcDbEntity
  8
0
  6
BYBLOCK
100
AcDbLine
 10
28.184624
 20
18.305944
 30
0.0
 11
28.184624
 21
23.210828
 31
0.0
  0
LINE
  5
BA1
100
AcDbEntity
  8
0
  6
BYBLOCK
100
AcDbLine
 10
24.809624
 20
18.364744
 30
0.0
 11
24.809624
 21
23.210828
 31
0.0
  0
LINE
  5
BA2
100
AcDbEntity
  8
0
  6
BYBLOCK
100
AcDbLine
 10
28.484624
 20
22.960828
 30
0.0
 11
28.784624
 21
22.960828
 31
0.0
  0
LINE
  5
BA3
100
AcDbEntity
  8
0
  6
BYBLOCK
100
AcDbLine
 10
24.509624
 20
22.960828
 30
0.0
 11
24.209624
 21
22.960828
 31
0.0
  0
SOLID
  5
BA4
100
AcDbEntity
  8
0
  6
BYBLOCK
100
AcDbTrace
 10
28.484624
 20
23.010828
 30
0.0
 11
28.484624
 21
22.910828
 31
0.0
 12
28.184624
 22
22.960828
 32
0.0
 13
28.184624
 23
22.960828
 33
0.0
  0
SOLID
  5
BA5
100
AcDbEntity
  8
0
  6
BYBLOCK
100
AcDbTrace
 10
24.509624
 20
23.010828
 30
0.0
 11
24.509624
 21
22.910828
 31
0.0
 12
24.809624
 22
22.960828
 32
0.0
 13
24.809624
 23
22.960828
 33
0.0
  0
MTEXT
  5
BA6
100
AcDbEntity
  8
0
  6
BYBLOCK
 62
     0
100
AcDbMText
 10
26.497124
 20
22.960828
 30
0.0
 40
0.5
 41
0.0
 71
     5
 72
     1
  1
\A1;3{\H1.000000x;\S3/8;} [86]
  7
ROMANS
  0
POINT
  5
BA7
100
AcDbEntity
  8
DEFPOINTS
  6
BYBLOCK
 62
     0
100
AcDbPoint
 10
28.184624
 20
18.055944
 30
0.0
  0
POINT
  5
BA8
100
AcDbEntity
  8
DEFPOINTS
  6
BYBLOCK
 62
     0
100
AcDbPoint
 10
24.809624
 20
18.114744
 30
0.0
  0
POINT
  5
BA9
100
AcDbEntity
  8
DEFPOINTS
  6
BYBLOCK
 62
     0
100
AcDbPoint
 10
24.809624
 20
22.960828
 30
0.0
  0
ENDBLK
  5
BAA
100
AcDbEntity
  8
0
100
AcDbBlockEnd
  0
BLOCK
  5
BBA
100
AcDbEntity
  8
0
100
AcDbBlockBegin
  2
*D20
 70
     1
 10
0.0
 20
0.0
 30
0.0
  3
*D20
  1

  0
LINE
  5
BBB
100
AcDbEntity
  8
0
  6
BYBLOCK
100
AcDbLine
 10
25.838945
 20
12.800701
 30
0.0
 11
25.838945
 21
11.314055
 31
0.0
  0
LINE
  5
BBC
100
AcDbEntity
  8
0
  6
BYBLOCK
100
AcDbLine
 10
27.155304
 20
12.800701
 30
0.0
 11
27.155304
 21
11.314055
 31
0.0
  0
LINE
  5
BBD
100
AcDbEntity
  8
0
  6
BYBLOCK
100
AcDbLine
 10
25.538945
 20
11.564055
 30
0.0
 11
25.238945
 21
11.564055
 31
0.0
  0
LINE
  5
BBE
100
AcDbEntity
  8
0
  6
BYBLOCK
100
AcDbLine
 10
27.455304
 20
11.564055
 30
0.0
 11
27.755304
 21
11.564055
 31
0.0
  0
SOLID
  5
BBF
100
AcDbEntity
  8
0
  6
BYBLOCK
100
AcDbTrace
 10
25.538945
 20
11.614055
 30
0.0
 11
25.538945
 21
11.514055
 31
0.0
 12
25.838945
 22
11.564055
 32
0.0
 13
25.838945
 23
11.564055
 33
0.0
  0
SOLID
  5
BC0
100
AcDbEntity
  8
0
  6
BYBLOCK
100
AcDbTrace
 10
27.455304
 20
11.614055
 30
0.0
 11
27.455304
 21
11.514055
 31
0.0
 12
27.155304
 22
11.564055
 32
0.0
 13
27.155304
 23
11.564055
 33
0.0
  0
MTEXT
  5
BC1
100
AcDbEntity
  8
0
  6
BYBLOCK
 62
     0
100
AcDbMText
 10
29.349352
 20
11.564055
 30
0.0
 40
0.5
 41
0.0
 71
     5
 72
     1
  1
\A1;A-I.P.S.
  7
ROMANS
  0
POINT
  5
BC2
100
AcDbEntity
  8
DEFPOINTS
  6
BYBLOCK
 62
     0
100
AcDbPoint
 10
25.838945
 20
13.050701
 30
0.0
  0
POINT
  5
BC3
100
AcDbEntity
  8
DEFPOINTS
  6
BYBLOCK
 62
     0
100
AcDbPoint
 10
27.155304
 20
13.050701
 30
0.0
  0
POINT
  5
BC4
100
AcDbEntity
  8
DEFPOINTS
  6
BYBLOCK
 62
     0
100
AcDbPoint
 10
27.155304
 20
11.564055
 30
0.0
  0
ENDBLK
  5
BC5
100
AcDbEntity
  8
0
100
AcDbBlockEnd
  0
BLOCK
  5
C91
100
AcDbEntity
  8
0
100
AcDbBlockBegin
  2
*D21
 70
     1
 10
0.0
 20
0.0
 30
0.0
  3
*D21
  1

  0
LINE
  5
C92
100
AcDbEntity
  8
0
  6
BYBLOCK
100
AcDbLine
 10
5.243596
 20
13.031844
 30
0.0
 11
-10.372725
 21
13.031844
 31
0.0
  0
LINE
  5
C93
100
AcDbEntity
  8
0
  6
BYBLOCK
100
AcDbLine
 10
26.247124
 20
21.531844
 30
0.0
 11
-10.372725
 21
21.531844
 31
0.0
  0
LINE
  5
C94
100
AcDbEntity
  8
0
  6
BYBLOCK
100
AcDbLine
 10
-10.122725
 20
13.331844
 30
0.0
 11
-10.122725
 21
16.215178
 31
0.0
  0
LINE
  5
C95
100
AcDbEntity
  8
0
  6
BYBLOCK
100
AcDbLine
 10
-10.122725
 20
21.231844
 30
0.0
 11
-10.122725
 21
18.348511
 31
0.0
  0
SOLID
  5
C96
100
AcDbEntity
  8
0
  6
BYBLOCK
100
AcDbTrace
 10
-10.172725
 20
13.331844
 30
0.0
 11
-10.072725
 21
13.331844
 31
0.0
 12
-10.122725
 22
13.031844
 32
0.0
 13
-10.122725
 23
13.031844
 33
0.0
  0
SOLID
  5
C97
100
AcDbEntity
  8
0
  6
BYBLOCK
100
AcDbTrace
 10
-10.172725
 20
21.231844
 30
0.0
 11
-10.072725
 21
21.231844
 31
0.0
 12
-10.122725
 22
21.531844
 32
0.0
 13
-10.122725
 23
21.531844
 33
0.0
  0
MTEXT
  5
C98
100
AcDbEntity
  8
0
  6
BYBLOCK
 62
     0
100
AcDbMText
 10
-10.122725
 20
17.281844
 30
0.0
 40
0.5
 41
0.0
 71
     5
 72
     1
  1
\A1;8{\H1.000000x;\S1/2;} [216]
  7
ROMANS
  0
POINT
  5
C99
100
AcDbEntity
  8
DEFPOINTS
  6
BYBLOCK
 62
     0
100
AcDbPoint
 10
5.493596
 20
13.031844
 30
0.0
  0
POINT
  5
C9A
100
AcDbEntity
  8
DEFPOINTS
  6
BYBLOCK
 62
     0
100
AcDbPoint
 10
26.497124
 20
21.531844
 30
0.0
  0
POINT
  5
C9B
100
AcDbEntity
  8
DEFPOINTS
  6
BYBLOCK
 62
     0
100
AcDbPoint
 10
-10.122725
 20
21.531844
 30
0.0
  0
ENDBLK
  5
C9C
100
AcDbEntity
  8
0
100
AcDbBlockEnd
  0
BLOCK
  5
C85
100
AcDbEntity
  8
0
100
AcDbBlockBegin
  2
*D22
 70
     1
 10
0.0
 20
0.0
 30
0.0
  3
*D22
  1

  0
LINE
  5
C86
100
AcDbEntity
  8
0
  6
BYBLOCK
100
AcDbLine
 10
5.243596
 20
13.031844
 30
0.0
 11
-7.849492
 21
13.031844
 31
0.0
  0
LINE
  5
C87
100
AcDbEntity
  8
0
  6
BYBLOCK
100
AcDbLine
 10
21.842708
 20
20.531844
 30
0.0
 11
-7.849492
 21
20.531844
 31
0.0
  0
LINE
  5
C88
100
AcDbEntity
  8
0
  6
BYBLOCK
100
AcDbLine
 10
-7.599492
 20
13.331844
 30
0.0
 11
-7.599492
 21
14.673395
 31
0.0
  0
LINE
  5
C89
100
AcDbEntity
  8
0
  6
BYBLOCK
100
AcDbLine
 10
-7.599492
 20
20.231844
 30
0.0
 11
-7.599492
 21
16.806728
 31
0.0
  0
SOLID
  5
C8A
100
AcDbEntity
  8
0
  6
BYBLOCK
100
AcDbTrace
 10
-7.649492
 20
13.331844
 30
0.0
 11
-7.549492
 21
13.331844
 31
0.0
 12
-7.599492
 22
13.031844
 32
0.0
 13
-7.599492
 23
13.031844
 33
0.0
  0
SOLID
  5
C8B
100
AcDbEntity
  8
0
  6
BYBLOCK
100
AcDbTrace
 10
-7.649492
 20
20.231844
 30
0.0
 11
-7.549492
 21
20.231844
 31
0.0
 12
-7.599492
 22
20.531844
 32
0.0
 13
-7.599492
 23
20.531844
 33
0.0
  0
MTEXT
  5
C8C
100
AcDbEntity
  8
0
  6
BYBLOCK
 62
     0
100
AcDbMText
 10
-7.599492
 20
15.740061
 30
0.0
 40
0.5
 41
0.0
 71
     5
 72
     1
  1
\A1;7{\H1.000000x;\S1/2;} [191]
  7
ROMANS
  0
POINT
  5
C8D
100
AcDbEntity
  8
DEFPOINTS
  6
BYBLOCK
 62
     0
100
AcDbPoint
 10
5.493596
 20
13.031844
 30
0.0
  0
POINT
  5
C8E
100
AcDbEntity
  8
DEFPOINTS
  6
BYBLOCK
 62
     0
100
AcDbPoint
 10
22.092708
 20
20.531844
 30
0.0
  0
POINT
  5
C8F
100
AcDbEntity
  8
DEFPOINTS
  6
BYBLOCK
 62
     0
100
AcDbPoint
 10
-7.599492
 20
20.531844
 30
0.0
  0
ENDBLK
  5
C90
100
AcDbEntity
  8
0
100
AcDbBlockEnd
  0
BLOCK
  5
C6D
100
AcDbEntity
  8
0
100
AcDbBlockBegin
  2
*D23
 70
     1
 10
0.0
 20
0.0
 30
0.0
  3
*D23
  1

  0
LINE
  5
C6E
100
AcDbEntity
  8
0
  6
BYBLOCK
100
AcDbLine
 10
5.243596
 20
13.031844
 30
0.0
 11
-4.224567
 21
13.031844
 31
0.0
  0
LINE
  5
C6F
100
AcDbEntity
  8
0
  6
BYBLOCK
100
AcDbLine
 10
17.632265
 20
19.656844
 30
0.0
 11
-4.224567
 21
19.656844
 31
0.0
  0
LINE
  5
C70
100
AcDbEntity
  8
0
  6
BYBLOCK
100
AcDbLine
 10
-3.974567
 20
13.331844
 30
0.0
 11
-3.974567
 21
15.845631
 31
0.0
  0
LINE
  5
C71
100
AcDbEntity
  8
0
  6
BYBLOCK
100
AcDbLine
 10
-3.974567
 20
19.356844
 30
0.0
 11
-3.974567
 21
17.978965
 31
0.0
  0
SOLID
  5
C72
100
AcDbEntity
  8
0
  6
BYBLOCK
100
AcDbTrace
 10
-4.024567
 20
13.331844
 30
0.0
 11
-3.924567
 21
13.331844
 31
0.0
 12
-3.974567
 22
13.031844
 32
0.0
 13
-3.974567
 23
13.031844
 33
0.0
  0
SOLID
  5
C73
100
AcDbEntity
  8
0
  6
BYBLOCK
100
AcDbTrace
 10
-4.024567
 20
19.356844
 30
0.0
 11
-3.924567
 21
19.356844
 31
0.0
 12
-3.974567
 22
19.656844
 32
0.0
 13
-3.974567
 23
19.656844
 33
0.0
  0
MTEXT
  5
C74
100
AcDbEntity
  8
0
  6
BYBLOCK
 62
     0
100
AcDbMText
 10
-3.974567
 20
16.912298
 30
0.0
 40
0.5
 41
0.0
 71
     5
 72
     1
  1
\A1;6{\H1.000000x;\S5/8;} [168]
  7
ROMANS
  0
POINT
  5
C75
100
AcDbEntity
  8
DEFPOINTS
  6
BYBLOCK
 62
     0
100
AcDbPoint
 10
5.493596
 20
13.031844
 30
0.0
  0
POINT
  5
C76
100
AcDbEntity
  8
DEFPOINTS
  6
BYBLOCK
 62
     0
100
AcDbPoint
 10
17.882265
 20
19.656844
 30
0.0
  0
POINT
  5
C77
100
AcDbEntity
  8
DEFPOINTS
  6
BYBLOCK
 62
     0
100
AcDbPoint
 10
-3.974567
 20
19.656844
 30
0.0
  0
ENDBLK
  5
C78
100
AcDbEntity
  8
0
100
AcDbBlockEnd
  0
BLOCK
  5
C55
100
AcDbEntity
  8
0
100
AcDbBlockBegin
  2
*D24
 70
     1
 10
0.0
 20
0.0
 30
0.0
  3
*D24
  1

  0
LINE
  5
C56
100
AcDbEntity
  8
0
  6
BYBLOCK
100
AcDbLine
 10
5.243596
 20
13.031844
 30
0.0
 11
-1.09718
 21
13.031844
 31
0.0
  0
LINE
  5
C57
100
AcDbEntity
  8
0
  6
BYBLOCK
100
AcDbLine
 10
13.560374
 20
17.531844
 30
0.0
 11
-1.09718
 21
17.531844
 31
0.0
  0
LINE
  5
C58
100
AcDbEntity
  8
0
  6
BYBLOCK
100
AcDbLine
 10
-0.84718
 20
13.331844
 30
0.0
 11
-0.84718
 21
14.215178
 31
0.0
  0
LINE
  5
C59
100
AcDbEntity
  8
0
  6
BYBLOCK
100
AcDbLine
 10
-0.84718
 20
17.231844
 30
0.0
 11
-0.84718
 21
16.348511
 31
0.0
  0
SOLID
  5
C5A
100
AcDbEntity
  8
0
  6
BYBLOCK
100
AcDbTrace
 10
-0.89718
 20
13.331844
 30
0.0
 11
-0.79718
 21
13.331844
 31
0.0
 12
-0.84718
 22
13.031844
 32
0.0
 13
-0.84718
 23
13.031844
 33
0.0
  0
SOLID
  5
C5B
100
AcDbEntity
  8
0
  6
BYBLOCK
100
AcDbTrace
 10
-0.89718
 20
17.231844
 30
0.0
 11
-0.79718
 21
17.231844
 31
0.0
 12
-0.84718
 22
17.531844
 32
0.0
 13
-0.84718
 23
17.531844
 33
0.0
  0
MTEXT
  5
C5C
100
AcDbEntity
  8
0
  6
BYBLOCK
 62
     0
100
AcDbMText
 10
-0.84718
 20
15.281844
 30
0.0
 40
0.5
 41
0.0
 71
     5
 72
     1
  1
\A1;4{\H1.000000x;\S1/2;} [114]
  7
ROMANS
  0
POINT
  5
C5D
100
AcDbEntity
  8
DEFPOINTS
  6
BYBLOCK
 62
     0
100
AcDbPoint
 10
5.493596
 20
13.031844
 30
0.0
  0
POINT
  5
C5E
100
AcDbEntity
  8
DEFPOINTS
  6
BYBLOCK
 62
     0
100
AcDbPoint
 10
13.810374
 20
17.531844
 30
0.0
  0
POINT
  5
C5F
100
AcDbEntity
  8
DEFPOINTS
  6
BYBLOCK
 62
     0
100
AcDbPoint
 10
-0.84718
 20
17.531844
 30
0.0
  0
ENDBLK
  5
C60
100
AcDbEntity
  8
0
100
AcDbBlockEnd
  0
BLOCK
  5
C25
100
AcDbEntity
  8
0
100
AcDbBlockBegin
  2
*D25
 70
     1
 10
0.0
 20
0.0
 30
0.0
  3
*D25
  1

  0
LINE
  5
C26
100
AcDbEntity
  8
0
  6
BYBLOCK
100
AcDbLine
 10
5.243596
 20
13.031844
 30
0.0
 11
2.243438
 21
13.031844
 31
0.0
  0
LINE
  5
C27
100
AcDbEntity
  8
0
  6
BYBLOCK
100
AcDbLine
 10
9.72561
 20
16.565844
 30
0.0
 11
2.243438
 21
16.565844
 31
0.0
  0
LINE
  5
C28
100
AcDbEntity
  8
0
  6
BYBLOCK
100
AcDbLine
 10
2.493438
 20
13.331844
 30
0.0
 11
2.493438
 21
13.732178
 31
0.0
  0
LINE
  5
C29
100
AcDbEntity
  8
0
  6
BYBLOCK
100
AcDbLine
 10
2.493438
 20
16.265844
 30
0.0
 11
2.493438
 21
15.865511
 31
0.0
  0
SOLID
  5
C2A
100
AcDbEntity
  8
0
  6
BYBLOCK
100
AcDbTrace
 10
2.443438
 20
13.331844
 30
0.0
 11
2.543438
 21
13.331844
 31
0.0
 12
2.493438
 22
13.031844
 32
0.0
 13
2.493438
 23
13.031844
 33
0.0
  0
SOLID
  5
C2B
100
AcDbEntity
  8
0
  6
BYBLOCK
100
AcDbTrace
 10
2.443438
 20
16.265844
 30
0.0
 11
2.543438
 21
16.265844
 31
0.0
 12
2.493438
 22
16.565844
 32
0.0
 13
2.493438
 23
16.565844
 33
0.0
  0
MTEXT
  5
C2C
100
AcDbEntity
  8
0
  6
BYBLOCK
 62
     0
100
AcDbMText
 10
2.493438
 20
14.798844
 30
0.0
 40
0.5
 41
0.0
 71
     5
 72
     1
  1
\A1;3{\H1.000000x;\S1/2;} [90]
  7
ROMANS
  0
POINT
  5
C2D
100
AcDbEntity
  8
DEFPOINTS
  6
BYBLOCK
 62
     0
100
AcDbPoint
 10
5.493596
 20
13.031844
 30
0.0
  0
POINT
  5
C2E
100
AcDbEntity
  8
DEFPOINTS
  6
BYBLOCK
 62
     0
100
AcDbPoint
 10
9.97561
 20
16.565844
 30
0.0
  0
POINT
  5
C2F
100
AcDbEntity
  8
DEFPOINTS
  6
BYBLOCK
 62
     0
100
AcDbPoint
 10
2.493438
 20
16.565844
 30
0.0
  0
ENDBLK
  5
C30
100
AcDbEntity
  8
0
100
AcDbBlockEnd
  0
BLOCK
  5
CC3
100
AcDbEntity
  8
0
100
AcDbBlockBegin
  2
*D26
 70
     1
 10
0.0
 20
0.0
 30
0.0
  3
*D26
  1

  0
LINE
  5
CC4
100
AcDbEntity
  8
0
  6
BYBLOCK
100
AcDbLine
 10
6.515584
 20
12.797332
 30
0.0
 11
6.515584
 21
11.764682
 31
0.0
  0
LINE
  5
CC5
100
AcDbEntity
  8
0
  6
BYBLOCK
100
AcDbLine
 10
5.464468
 20
12.797332
 30
0.0
 11
5.464468
 21
11.764682
 31
0.0
  0
LINE
  5
CC6
100
AcDbEntity
  8
0
  6
BYBLOCK
100
AcDbLine
 10
6.815584
 20
12.014682
 30
0.0
 11
7.115584
 21
12.014682
 31
0.0
  0
LINE
  5
CC7
100
AcDbEntity
  8
0
  6
BYBLOCK
100
AcDbLine
 10
5.164468
 20
12.014682
 30
0.0
 11
4.864468
 21
12.014682
 31
0.0
  0
SOLID
  5
CC8
100
AcDbEntity
  8
0
  6
BYBLOCK
100
AcDbTrace
 10
6.815584
 20
12.064682
 30
0.0
 11
6.815584
 21
11.964682
 31
0.0
 12
6.515584
 22
12.014682
 32
0.0
 13
6.515584
 23
12.014682
 33
0.0
  0
SOLID
  5
CC9
100
AcDbEntity
  8
0
  6
BYBLOCK
100
AcDbTrace
 10
5.164468
 20
12.064682
 30
0.0
 11
5.164468
 21
11.964682
 31
0.0
 12
5.464468
 22
12.014682
 32
0.0
 13
5.464468
 23
12.014682
 33
0.0
  0
MTEXT
  5
CCA
100
AcDbEntity
  8
0
  6
BYBLOCK
 62
     0
100
AcDbMText
 10
2.42042
 20
12.014682
 30
0.0
 40
0.5
 41
0.0
 71
     5
 72
     1
  1
\A1;\A1;{\H1.000000x;\S3/4;} [19] I.P.S.
  7
ROMANS
  0
POINT
  5
CCB
100
AcDbEntity
  8
DEFPOINTS
  6
BYBLOCK
 62
     0
100
AcDbPoint
 10
6.515584
 20
13.047332
 30
0.0
  0
POINT
  5
CCC
100
AcDbEntity
  8
DEFPOINTS
  6
BYBLOCK
 62
     0
100
AcDbPoint
 10
5.464468
 20
13.047332
 30
0.0
  0
POINT
  5
CCD
100
AcDbEntity
  8
DEFPOINTS
  6
BYBLOCK
 62
     0
100
AcDbPoint
 10
5.464468
 20
12.014682
 30
0.0
  0
ENDBLK
  5
CCE
100
AcDbEntity
  8
0
100
AcDbBlockEnd
  0
BLOCK
  5
CDD
100
AcDbEntity
  8
0
100
AcDbBlockBegin
  2
*D28
 70
     1
 10
0.0
 20
0.0
 30
0.0
  3
*D28
  1

  0
LINE
  5
CDE
100
AcDbEntity
  8
0
  6
BYBLOCK
100
AcDbLine
 10
10.501168
 20
12.797332
 30
0.0
 11
10.501168
 21
10.290826
 31
0.0
  0
LINE
  5
CDF
100
AcDbEntity
  8
0
  6
BYBLOCK
100
AcDbLine
 10
9.450051
 20
12.797332
 30
0.0
 11
9.450051
 21
10.290826
 31
0.0
  0
LINE
  5
CE0
100
AcDbEntity
  8
0
  6
BYBLOCK
100
AcDbLine
 10
10.801168
 20
10.540826
 30
0.0
 11
11.101168
 21
10.540826
 31
0.0
  0
LINE
  5
CE1
100
AcDbEntity
  8
0
  6
BYBLOCK
100
AcDbLine
 10
9.150051
 20
10.540826
 30
0.0
 11
8.850051
 21
10.540826
 31
0.0
  0
SOLID
  5
CE2
100
AcDbEntity
  8
0
  6
BYBLOCK
100
AcDbTrace
 10
10.801168
 20
10.590826
 30
0.0
 11
10.801168
 21
10.490826
 31
0.0
 12
10.501168
 22
10.540826
 32
0.0
 13
10.501168
 23
10.540826
 33
0.0
  0
SOLID
  5
CE3
100
AcDbEntity
  8
0
  6
BYBLOCK
100
AcDbTrace
 10
9.150051
 20
10.590826
 30
0.0
 11
9.150051
 21
10.490826
 31
0.0
 12
9.450051
 22
10.540826
 32
0.0
 13
9.450051
 23
10.540826
 33
0.0
  0
MTEXT
  5
CE4
100
AcDbEntity
  8
0
  6
BYBLOCK
 62
     0
100
AcDbMText
 10
6.406004
 20
10.540826
 30
0.0
 40
0.5
 41
0.0
 71
     5
 72
     1
  1
\A1;\A1;{\H1.000000x;\S3/4;} [19] I.P.S.
  7
ROMANS
  0
POINT
  5
CE5
100
AcDbEntity
  8
DEFPOINTS
  6
BYBLOCK
 62
     0
100
AcDbPoint
 10
10.501168
 20
13.047332
 30
0.0
  0
POINT
  5
CE6
100
AcDbEntity
  8
DEFPOINTS
  6
BYBLOCK
 62
     0
100
AcDbPoint
 10
9.450051
 20
13.047332
 30
0.0
  0
POINT
  5
CE7
100
AcDbEntity
  8
DEFPOINTS
  6
BYBLOCK
 62
     0
100
AcDbPoint
 10
9.450051
 20
10.540826
 30
0.0
  0
ENDBLK
  5
CE8
100
AcDbEntity
  8
0
100
AcDbBlockEnd
  0
ENDSEC
  0
SECTION
  2
ENTITIES
  0
LINE
  5
138
100
AcDbEntity
  8
FULL
100
AcDbLine
 10
5.493596
 20
13.031844
 30
0.0
 11
6.486456
 21
13.031844
 31
0.0
  0
LINE
  5
13B
100
AcDbEntity
  8
FULL
100
AcDbLine
 10
5.493596
 20
13.031844
 30
0.0
 11
5.464468
 21
13.047332
 31
0.0
  0
LINE
  5
13C
100
AcDbEntity
  8
FULL
100
AcDbLine
 10
5.464468
 20
13.047332
 30
0.0
 11
5.492445
 21
13.064814
 31
0.0
  0
LINE
  5
13D
100
AcDbEntity
  8
FULL
100
AcDbLine
 10
5.463317
 20
13.080302
 30
0.0
 11
5.491293
 21
13.097784
 31
0.0
  0
LINE
  5
13E
100
AcDbEntity
  8
FULL
100
AcDbLine
 10
5.492445
 20
13.064814
 30
0.0
 11
5.463317
 21
13.080302
 31
0.0
  0
LINE
  5
13F
100
AcDbEntity
  8
FULL
100
AcDbLine
 10
5.490142
 20
13.130753
 30
0.0
 11
5.461014
 21
13.146241
 31
0.0
  0
LINE
  5
140
100
AcDbEntity
  8
FULL
100
AcDbLine
 10
5.461014
 20
13.146241
 30
0.0
 11
5.488991
 21
13.163723
 31
0.0
  0
LINE
  5
141
100
AcDbEntity
  8
FULL
100
AcDbLine
 10
5.462165
 20
13.113271
 30
0.0
 11
5.490142
 21
13.130753
 31
0.0
  0
LINE
  5
142
100
AcDbEntity
  8
FULL
100
AcDbLine
 10
5.491293
 20
13.097784
 30
0.0
 11
5.462165
 21
13.113271
 31
0.0
  0
LINE
  5
143
100
AcDbEntity
  8
FULL
100
AcDbLine
 10
5.486688
 20
13.229662
 30
0.0
 11
5.45756
 21
13.24515
 31
0.0
  0
LINE
  5
144
100
AcDbEntity
  8
FULL
100
AcDbLine
 10
5.45756
 20
13.24515
 30
0.0
 11
5.485537
 21
13.262632
 31
0.0
  0
LINE
  5
145
100
AcDbEntity
  8
FULL
100
AcDbLine
 10
5.456409
 20
13.27812
 30
0.0
 11
5.484385
 21
13.295602
 31
0.0
  0
LINE
  5
146
100
AcDbEntity
  8
FULL
100
AcDbLine
 10
5.485537
 20
13.262632
 30
0.0
 11
5.456409
 21
13.27812
 31
0.0
  0
LINE
  5
147
100
AcDbEntity
  8
FULL
100
AcDbLine
 10
5.487839
 20
13.196693
 30
0.0
 11
5.458711
 21
13.21218
 31
0.0
  0
LINE
  5
148
100
AcDbEntity
  8
FULL
100
AcDbLine
 10
5.458711
 20
13.21218
 30
0.0
 11
5.486688
 21
13.229662
 31
0.0
  0
LINE
  5
149
100
AcDbEntity
  8
FULL
100
AcDbLine
 10
5.459863
 20
13.179211
 30
0.0
 11
5.487839
 21
13.196693
 31
0.0
  0
LINE
  5
14A
100
AcDbEntity
  8
FULL
100
AcDbLine
 10
5.488991
 20
13.163723
 30
0.0
 11
5.459863
 21
13.179211
 31
0.0
  0
LINE
  5
14B
100
AcDbEntity
  8
FULL
100
AcDbLine
 10
5.482083
 20
13.361541
 30
0.0
 11
5.452955
 21
13.377029
 31
0.0
  0
LINE
  5
14C
100
AcDbEntity
  8
FULL
100
AcDbLine
 10
5.452955
 20
13.377029
 30
0.0
 11
5.480931
 21
13.394511
 31
0.0
  0
LINE
  5
14D
100
AcDbEntity
  8
FULL
100
AcDbLine
 10
5.451803
 20
13.409999
 30
0.0
 11
5.47978
 21
13.427481
 31
0.0
  0
LINE
  5
14E
100
AcDbEntity
  8
FULL
100
AcDbLine
 10
5.480931
 20
13.394511
 30
0.0
 11
5.451803
 21
13.409999
 31
0.0
  0
LINE
  5
14F
100
AcDbEntity
  8
FULL
100
AcDbLine
 10
5.483234
 20
13.328572
 30
0.0
 11
5.454106
 21
13.344059
 31
0.0
  0
LINE
  5
150
100
AcDbEntity
  8
FULL
100
AcDbLine
 10
5.454106
 20
13.344059
 30
0.0
 11
5.482083
 21
13.361541
 31
0.0
  0
LINE
  5
151
100
AcDbEntity
  8
FULL
100
AcDbLine
 10
5.455257
 20
13.31109
 30
0.0
 11
5.483234
 21
13.328572
 31
0.0
  0
LINE
  5
152
100
AcDbEntity
  8
FULL
100
AcDbLine
 10
5.484385
 20
13.295602
 30
0.0
 11
5.455257
 21
13.31109
 31
0.0
  0
LINE
  5
153
100
AcDbEntity
  8
FULL
100
AcDbLine
 10
5.477478
 20
13.49342
 30
0.0
 11
5.448349
 21
13.508908
 31
0.0
  0
LINE
  5
154
100
AcDbEntity
  8
FULL
100
AcDbLine
 10
5.448349
 20
13.508908
 30
0.0
 11
5.476326
 21
13.52639
 31
0.0
  0
LINE
  5
155
100
AcDbEntity
  8
FULL
100
AcDbLine
 10
5.447198
 20
13.541877
 30
0.0
 11
5.475175
 21
13.559359
 31
0.0
  0
LINE
  5
156
100
AcDbEntity
  8
FULL
100
AcDbLine
 10
5.476326
 20
13.52639
 30
0.0
 11
5.447198
 21
13.541877
 31
0.0
  0
LINE
  5
157
100
AcDbEntity
  8
FULL
100
AcDbLine
 10
5.478629
 20
13.46045
 30
0.0
 11
5.449501
 21
13.475938
 31
0.0
  0
LINE
  5
158
100
AcDbEntity
  8
FULL
100
AcDbLine
 10
5.449501
 20
13.475938
 30
0.0
 11
5.477478
 21
13.49342
 31
0.0
  0
LINE
  5
159
100
AcDbEntity
  8
FULL
100
AcDbLine
 10
5.450652
 20
13.442968
 30
0.0
 11
5.478629
 21
13.46045
 31
0.0
  0
LINE
  5
15A
100
AcDbEntity
  8
FULL
100
AcDbLine
 10
5.47978
 20
13.427481
 30
0.0
 11
5.450652
 21
13.442968
 31
0.0
  0
LINE
  5
15B
100
AcDbEntity
  8
FULL
100
AcDbLine
 10
5.472872
 20
13.625299
 30
0.0
 11
5.443744
 21
13.640787
 31
0.0
  0
LINE
  5
15C
100
AcDbEntity
  8
FULL
100
AcDbLine
 10
5.443744
 20
13.640787
 30
0.0
 11
5.471721
 21
13.658268
 31
0.0
  0
LINE
  5
15D
100
AcDbEntity
  8
FULL
100
AcDbLine
 10
5.442593
 20
13.673756
 30
0.0
 11
5.47057
 21
13.691238
 31
0.0
  0
LINE
  5
15E
100
AcDbEntity
  8
FULL
100
AcDbLine
 10
5.471721
 20
13.658268
 30
0.0
 11
5.442593
 21
13.673756
 31
0.0
  0
LINE
  5
15F
100
AcDbEntity
  8
FULL
100
AcDbLine
 10
5.474024
 20
13.592329
 30
0.0
 11
5.444895
 21
13.607817
 31
0.0
  0
LINE
  5
160
100
AcDbEntity
  8
FULL
100
AcDbLine
 10
5.444895
 20
13.607817
 30
0.0
 11
5.472872
 21
13.625299
 31
0.0
  0
LINE
  5
161
100
AcDbEntity
  8
FULL
100
AcDbLine
 10
5.446047
 20
13.574847
 30
0.0
 11
5.474024
 21
13.592329
 31
0.0
  0
LINE
  5
162
100
AcDbEntity
  8
FULL
100
AcDbLine
 10
5.475175
 20
13.559359
 30
0.0
 11
5.446047
 21
13.574847
 31
0.0
  0
LINE
  5
163
100
AcDbEntity
  8
FULL
100
AcDbLine
 10
5.469418
 20
13.724208
 30
0.0
 11
5.44029
 21
13.739696
 31
0.0
  0
LINE
  5
164
100
AcDbEntity
  8
FULL
100
AcDbLine
 10
5.441441
 20
13.706726
 30
0.0
 11
5.469418
 21
13.724208
 31
0.0
  0
LINE
  5
165
100
AcDbEntity
  8
FULL
100
AcDbLine
 10
5.47057
 20
13.691238
 30
0.0
 11
5.441441
 21
13.706726
 31
0.0
  0
LINE
  5
166
100
AcDbEntity
  8
FULL
100
AcDbLine
 10
5.44029
 20
13.739696
 30
0.0
 11
5.413846
 21
14.496938
 31
0.0
  0
LINE
  5
169
100
AcDbEntity
  8
FULL
100
AcDbLine
 10
6.539762
 20
13.739696
 30
0.0
 11
6.566206
 21
14.496938
 31
0.0
  0
LINE
  5
16A
100
AcDbEntity
  8
FULL
100
AcDbLine
 10
6.509483
 20
13.691238
 30
0.0
 11
6.538611
 21
13.706726
 31
0.0
  0
LINE
  5
16B
100
AcDbEntity
  8
FULL
100
AcDbLine
 10
6.538611
 20
13.706726
 30
0.0
 11
6.510634
 21
13.724208
 31
0.0
  0
LINE
  5
16C
100
AcDbEntity
  8
FULL
100
AcDbLine
 10
6.510634
 20
13.724208
 30
0.0
 11
6.539762
 21
13.739696
 31
0.0
  0
LINE
  5
16D
100
AcDbEntity
  8
FULL
100
AcDbLine
 10
6.504877
 20
13.559359
 30
0.0
 11
6.534006
 21
13.574847
 31
0.0
  0
LINE
  5
16E
100
AcDbEntity
  8
FULL
100
AcDbLine
 10
6.534006
 20
13.574847
 30
0.0
 11
6.506029
 21
13.592329
 31
0.0
  0
LINE
  5
16F
100
AcDbEntity
  8
FULL
100
AcDbLine
 10
6.535157
 20
13.607817
 30
0.0
 11
6.50718
 21
13.625299
 31
0.0
  0
LINE
  5
170
100
AcDbEntity
  8
FULL
100
AcDbLine
 10
6.506029
 20
13.592329
 30
0.0
 11
6.535157
 21
13.607817
 31
0.0
  0
LINE
  5
171
100
AcDbEntity
  8
FULL
100
AcDbLine
 10
6.508331
 20
13.658268
 30
0.0
 11
6.53746
 21
13.673756
 31
0.0
  0
LINE
  5
172
100
AcDbEntity
  8
FULL
100
AcDbLine
 10
6.53746
 20
13.673756
 30
0.0
 11
6.509483
 21
13.691238
 31
0.0
  0
LINE
  5
173
100
AcDbEntity
  8
FULL
100
AcDbLine
 10
6.536308
 20
13.640787
 30
0.0
 11
6.508331
 21
13.658268
 31
0.0
  0
LINE
  5
174
100
AcDbEntity
  8
FULL
100
AcDbLine
 10
6.50718
 20
13.625299
 30
0.0
 11
6.536308
 21
13.640787
 31
0.0
  0
LINE
  5
175
100
AcDbEntity
  8
FULL
100
AcDbLine
 10
6.500272
 20
13.427481
 30
0.0
 11
6.5294
 21
13.442968
 31
0.0
  0
LINE
  5
176
100
AcDbEntity
  8
FULL
100
AcDbLine
 10
6.5294
 20
13.442968
 30
0.0
 11
6.501423
 21
13.46045
 31
0.0
  0
LINE
  5
177
100
AcDbEntity
  8
FULL
100
AcDbLine
 10
6.530552
 20
13.475938
 30
0.0
 11
6.502575
 21
13.49342
 31
0.0
  0
LINE
  5
178
100
AcDbEntity
  8
FULL
100
AcDbLine
 10
6.501423
 20
13.46045
 30
0.0
 11
6.530552
 21
13.475938
 31
0.0
  0
LINE
  5
179
100
AcDbEntity
  8
FULL
100
AcDbLine
 10
6.503726
 20
13.52639
 30
0.0
 11
6.532854
 21
13.541877
 31
0.0
  0
LINE
  5
17A
100
AcDbEntity
  8
FULL
100
AcDbLine
 10
6.532854
 20
13.541877
 30
0.0
 11
6.504877
 21
13.559359
 31
0.0
  0
LINE
  5
17B
100
AcDbEntity
  8
FULL
100
AcDbLine
 10
6.531703
 20
13.508908
 30
0.0
 11
6.503726
 21
13.52639
 31
0.0
  0
LINE
  5
17C
100
AcDbEntity
  8
FULL
100
AcDbLine
 10
6.502575
 20
13.49342
 30
0.0
 11
6.531703
 21
13.508908
 31
0.0
  0
LINE
  5
17D
100
AcDbEntity
  8
FULL
100
AcDbLine
 10
6.495667
 20
13.295602
 30
0.0
 11
6.524795
 21
13.31109
 31
0.0
  0
LINE
  5
17E
100
AcDbEntity
  8
FULL
100
AcDbLine
 10
6.524795
 20
13.31109
 30
0.0
 11
6.496818
 21
13.328572
 31
0.0
  0
LINE
  5
17F
100
AcDbEntity
  8
FULL
100
AcDbLine
 10
6.525946
 20
13.344059
 30
0.0
 11
6.497969
 21
13.361541
 31
0.0
  0
LINE
  5
180
100
AcDbEntity
  8
FULL
100
AcDbLine
 10
6.496818
 20
13.328572
 30
0.0
 11
6.525946
 21
13.344059
 31
0.0
  0
LINE
  5
181
100
AcDbEntity
  8
FULL
100
AcDbLine
 10
6.499121
 20
13.394511
 30
0.0
 11
6.528249
 21
13.409999
 31
0.0
  0
LINE
  5
182
100
AcDbEntity
  8
FULL
100
AcDbLine
 10
6.528249
 20
13.409999
 30
0.0
 11
6.500272
 21
13.427481
 31
0.0
  0
LINE
  5
183
100
AcDbEntity
  8
FULL
100
AcDbLine
 10
6.527098
 20
13.377029
 30
0.0
 11
6.499121
 21
13.394511
 31
0.0
  0
LINE
  5
184
100
AcDbEntity
  8
FULL
100
AcDbLine
 10
6.497969
 20
13.361541
 30
0.0
 11
6.527098
 21
13.377029
 31
0.0
  0
LINE
  5
185
100
AcDbEntity
  8
FULL
100
AcDbLine
 10
6.491061
 20
13.163723
 30
0.0
 11
6.52019
 21
13.179211
 31
0.0
  0
LINE
  5
186
100
AcDbEntity
  8
FULL
100
AcDbLine
 10
6.52019
 20
13.179211
 30
0.0
 11
6.492213
 21
13.196693
 31
0.0
  0
LINE
  5
187
100
AcDbEntity
  8
FULL
100
AcDbLine
 10
6.521341
 20
13.21218
 30
0.0
 11
6.493364
 21
13.229662
 31
0.0
  0
LINE
  5
188
100
AcDbEntity
  8
FULL
100
AcDbLine
 10
6.492213
 20
13.196693
 30
0.0
 11
6.521341
 21
13.21218
 31
0.0
  0
LINE
  5
189
100
AcDbEntity
  8
FULL
100
AcDbLine
 10
6.494515
 20
13.262632
 30
0.0
 11
6.523644
 21
13.27812
 31
0.0
  0
LINE
  5
18A
100
AcDbEntity
  8
FULL
100
AcDbLine
 10
6.523644
 20
13.27812
 30
0.0
 11
6.495667
 21
13.295602
 31
0.0
  0
LINE
  5
18B
100
AcDbEntity
  8
FULL
100
AcDbLine
 10
6.522492
 20
13.24515
 30
0.0
 11
6.494515
 21
13.262632
 31
0.0
  0
LINE
  5
18C
100
AcDbEntity
  8
FULL
100
AcDbLine
 10
6.493364
 20
13.229662
 30
0.0
 11
6.522492
 21
13.24515
 31
0.0
  0
LINE
  5
18D
100
AcDbEntity
  8
FULL
100
AcDbLine
 10
6.488759
 20
13.097784
 30
0.0
 11
6.517887
 21
13.113271
 31
0.0
  0
LINE
  5
18E
100
AcDbEntity
  8
FULL
100
AcDbLine
 10
6.517887
 20
13.113271
 30
0.0
 11
6.48991
 21
13.130753
 31
0.0
  0
LINE
  5
18F
100
AcDbEntity
  8
FULL
100
AcDbLine
 10
6.519038
 20
13.146241
 30
0.0
 11
6.491061
 21
13.163723
 31
0.0
  0
LINE
  5
190
100
AcDbEntity
  8
FULL
100
AcDbLine
 10
6.48991
 20
13.130753
 30
0.0
 11
6.519038
 21
13.146241
 31
0.0
  0
LINE
  5
191
100
AcDbEntity
  8
FULL
100
AcDbLine
 10
6.487607
 20
13.064814
 30
0.0
 11
6.516736
 21
13.080302
 31
0.0
  0
LINE
  5
192
100
AcDbEntity
  8
FULL
100
AcDbLine
 10
6.516736
 20
13.080302
 30
0.0
 11
6.488759
 21
13.097784
 31
0.0
  0
LINE
  5
193
100
AcDbEntity
  8
FULL
100
AcDbLine
 10
6.515584
 20
13.047332
 30
0.0
 11
6.487607
 21
13.064814
 31
0.0
  0
LINE
  5
194
100
AcDbEntity
  8
FULL
100
AcDbLine
 10
6.486456
 20
13.031844
 30
0.0
 11
6.515584
 21
13.047332
 31
0.0
  0
LINE
  5
195
100
AcDbEntity
  8
FULL
100
AcDbLine
 10
5.44029
 20
13.739696
 30
0.0
 11
6.539762
 21
13.739696
 31
0.0
  0
LINE
  5
196
100
AcDbEntity
  8
FULL
100
AcDbLine
 10
5.493596
 20
13.031844
 30
0.0
 11
6.515584
 21
13.047332
 31
0.0
  0
LINE
  5
197
100
AcDbEntity
  8
FULL
100
AcDbLine
 10
5.464468
 20
13.047332
 30
0.0
 11
6.487607
 21
13.064814
 31
0.0
  0
LINE
  5
198
100
AcDbEntity
  8
FULL
100
AcDbLine
 10
5.492445
 20
13.064814
 30
0.0
 11
6.516736
 21
13.080302
 31
0.0
  0
LINE
  5
199
100
AcDbEntity
  8
FULL
100
AcDbLine
 10
6.488759
 20
13.097784
 30
0.0
 11
5.463317
 21
13.080302
 31
0.0
  0
LINE
  5
19A
100
AcDbEntity
  8
FULL
100
AcDbLine
 10
5.491293
 20
13.097784
 30
0.0
 11
6.517887
 21
13.113271
 31
0.0
  0
LINE
  5
19B
100
AcDbEntity
  8
FULL
100
AcDbLine
 10
6.48991
 20
13.130753
 30
0.0
 11
5.462165
 21
13.113271
 31
0.0
  0
LINE
  5
19C
100
AcDbEntity
  8
FULL
100
AcDbLine
 10
5.490142
 20
13.130753
 30
0.0
 11
6.519038
 21
13.146241
 31
0.0
  0
LINE
  5
19D
100
AcDbEntity
  8
FULL
100
AcDbLine
 10
6.491061
 20
13.163723
 30
0.0
 11
5.461014
 21
13.146241
 31
0.0
  0
LINE
  5
19E
100
AcDbEntity
  8
FULL
100
AcDbLine
 10
5.488991
 20
13.163723
 30
0.0
 11
6.52019
 21
13.179211
 31
0.0
  0
LINE
  5
19F
100
AcDbEntity
  8
FULL
100
AcDbLine
 10
6.492213
 20
13.196693
 30
0.0
 11
5.459863
 21
13.179211
 31
0.0
  0
LINE
  5
1A0
100
AcDbEntity
  8
FULL
100
AcDbLine
 10
5.487839
 20
13.196693
 30
0.0
 11
6.521341
 21
13.21218
 31
0.0
  0
LINE
  5
1A1
100
AcDbEntity
  8
FULL
100
AcDbLine
 10
6.493364
 20
13.229662
 30
0.0
 11
5.458711
 21
13.21218
 31
0.0
  0
LINE
  5
1A2
100
AcDbEntity
  8
FULL
100
AcDbLine
 10
5.486688
 20
13.229662
 30
0.0
 11
6.522492
 21
13.24515
 31
0.0
  0
LINE
  5
1A3
100
AcDbEntity
  8
FULL
100
AcDbLine
 10
6.494515
 20
13.262632
 30
0.0
 11
5.45756
 21
13.24515
 31
0.0
  0
LINE
  5
1A4
100
AcDbEntity
  8
FULL
100
AcDbLine
 10
5.485537
 20
13.262632
 30
0.0
 11
6.523644
 21
13.27812
 31
0.0
  0
LINE
  5
1A5
100
AcDbEntity
  8
FULL
100
AcDbLine
 10
6.495667
 20
13.295602
 30
0.0
 11
5.456409
 21
13.27812
 31
0.0
  0
LINE
  5
1A6
100
AcDbEntity
  8
FULL
100
AcDbLine
 10
5.484385
 20
13.295602
 30
0.0
 11
6.524795
 21
13.31109
 31
0.0
  0
LINE
  5
1A7
100
AcDbEntity
  8
FULL
100
AcDbLine
 10
6.496818
 20
13.328572
 30
0.0
 11
5.455257
 21
13.31109
 31
0.0
  0
LINE
  5
1A8
100
AcDbEntity
  8
FULL
100
AcDbLine
 10
5.483234
 20
13.328572
 30
0.0
 11
6.525946
 21
13.344059
 31
0.0
  0
LINE
  5
1A9
100
AcDbEntity
  8
FULL
100
AcDbLine
 10
6.497969
 20
13.361541
 30
0.0
 11
5.454106
 21
13.344059
 31
0.0
  0
LINE
  5
1AA
100
AcDbEntity
  8
FULL
100
AcDbLine
 10
5.482083
 20
13.361541
 30
0.0
 11
6.527098
 21
13.377029
 31
0.0
  0
LINE
  5
1AB
100
AcDbEntity
  8
FULL
100
AcDbLine
 10
6.499121
 20
13.394511
 30
0.0
 11
5.452955
 21
13.377029
 31
0.0
  0
LINE
  5
1AC
100
AcDbEntity
  8
FULL
100
AcDbLine
 10
5.480931
 20
13.394511
 30
0.0
 11
6.528249
 21
13.409999
 31
0.0
  0
LINE
  5
1AD
100
AcDbEntity
  8
FULL
100
AcDbLine
 10
6.500272
 20
13.427481
 30
0.0
 11
5.451803
 21
13.409999
 31
0.0
  0
LINE
  5
1AE
100
AcDbEntity
  8
FULL
100
AcDbLine
 10
5.47978
 20
13.427481
 30
0.0
 11
6.5294
 21
13.442968
 31
0.0
  0
LINE
  5
1AF
100
AcDbEntity
  8
FULL
100
AcDbLine
 10
6.501423
 20
13.46045
 30
0.0
 11
5.450652
 21
13.442968
 31
0.0
  0
LINE
  5
1B0
100
AcDbEntity
  8
FULL
100
AcDbLine
 10
5.478629
 20
13.46045
 30
0.0
 11
6.530552
 21
13.475938
 31
0.0
  0
LINE
  5
1B1
100
AcDbEntity
  8
FULL
100
AcDbLine
 10
6.502575
 20
13.49342
 30
0.0
 11
5.449501
 21
13.475938
 31
0.0
  0
LINE
  5
1B2
100
AcDbEntity
  8
FULL
100
AcDbLine
 10
5.477478
 20
13.49342
 30
0.0
 11
6.531703
 21
13.508908
 31
0.0
  0
LINE
  5
1B3
100
AcDbEntity
  8
FULL
100
AcDbLine
 10
6.503726
 20
13.52639
 30
0.0
 11
5.448349
 21
13.508908
 31
0.0
  0
LINE
  5
1B4
100
AcDbEntity
  8
FULL
100
AcDbLine
 10
5.476326
 20
13.52639
 30
0.0
 11
6.532854
 21
13.541877
 31
0.0
  0
LINE
  5
1B5
100
AcDbEntity
  8
FULL
100
AcDbLine
 10
6.504877
 20
13.559359
 30
0.0
 11
5.447198
 21
13.541877
 31
0.0
  0
LINE
  5
1B6
100
AcDbEntity
  8
FULL
100
AcDbLine
 10
5.475175
 20
13.559359
 30
0.0
 11
6.534006
 21
13.574847
 31
0.0
  0
LINE
  5
1B7
100
AcDbEntity
  8
FULL
100
AcDbLine
 10
6.506029
 20
13.592329
 30
0.0
 11
5.446047
 21
13.574847
 31
0.0
  0
LINE
  5
1B8
100
AcDbEntity
  8
FULL
100
AcDbLine
 10
5.474024
 20
13.592329
 30
0.0
 11
6.535157
 21
13.607817
 31
0.0
  0
LINE
  5
1B9
100
AcDbEntity
  8
FULL
100
AcDbLine
 10
6.50718
 20
13.625299
 30
0.0
 11
5.444895
 21
13.607817
 31
0.0
  0
LINE
  5
1BA
100
AcDbEntity
  8
FULL
100
AcDbLine
 10
5.472872
 20
13.625299
 30
0.0
 11
6.536308
 21
13.640787
 31
0.0
  0
LINE
  5
1BB
100
AcDbEntity
  8
FULL
100
AcDbLine
 10
6.508331
 20
13.658268
 30
0.0
 11
5.443744
 21
13.640787
 31
0.0
  0
LINE
  5
1BC
100
AcDbEntity
  8
FULL
100
AcDbLine
 10
5.471721
 20
13.658268
 30
0.0
 11
6.53746
 21
13.673756
 31
0.0
  0
LINE
  5
1BD
100
AcDbEntity
  8
FULL
100
AcDbLine
 10
6.509483
 20
13.691238
 30
0.0
 11
5.442593
 21
13.673756
 31
0.0
  0
LINE
  5
1BE
100
AcDbEntity
  8
FULL
100
AcDbLine
 10
5.47057
 20
13.691238
 30
0.0
 11
6.538611
 21
13.706726
 31
0.0
  0
LINE
  5
1BF
100
AcDbEntity
  8
FULL
100
AcDbLine
 10
6.510634
 20
13.724208
 30
0.0
 11
5.441441
 21
13.706726
 31
0.0
  0
LINE
  5
1C0
100
AcDbEntity
  8
FULL
100
AcDbLine
 10
5.469418
 20
13.724208
 30
0.0
 11
6.539762
 21
13.739696
 31
0.0
  0
ARC
  5
1C2
100
AcDbEntity
  8
FULL
100
AcDbCircle
 10
8.68061
 20
15.962788
 30
0.0
 40
0.29
100
AcDbArc
 50
117.180173
 51
180.0
  0
ARC
  5
1C3
100
AcDbEntity
  8
FULL
100
AcDbCircle
 10
11.27061
 20
15.962788
 30
0.0
 40
0.29
100
AcDbArc
 50
0.0
 51
62.819827
  0
ARC
  5
1C4
100
AcDbEntity
  8
FULL
100
AcDbCircle
 10
9.97561
 20
13.440844
 30
0.0
 40
3.125
100
AcDbArc
 50
62.819827
 51
117.180173
  0
LINE
  5
1C5
100
AcDbEntity
  8
FULL
100
AcDbLine
 10
11.56061
 20
15.705844
 30
0.0
 11
11.56061
 21
15.962788
 31
0.0
  0
LINE
  5
1C6
100
AcDbEntity
  8
FULL
100
AcDbLine
 10
8.39061
 20
15.705844
 30
0.0
 11
8.39061
 21
15.962788
 31
0.0
  0
LINE
  5
1C7
100
AcDbEntity
  8
FULL
100
AcDbLine
 10
8.39061
 20
15.491844
 30
0.0
 11
8.39061
 21
15.234901
 31
0.0
  0
LINE
  5
1C8
100
AcDbEntity
  8
FULL
100
AcDbLine
 10
11.56061
 20
15.491844
 30
0.0
 11
11.56061
 21
15.234901
 31
0.0
  0
ARC
  5
1C9
100
AcDbEntity
  8
FULL
100
AcDbCircle
 10
9.97561
 20
17.756844
 30
0.0
 40
3.125
100
AcDbArc
 50
242.819827
 51
253.715758
  0
ARC
  5
1CA
100
AcDbEntity
  8
FULL
100
AcDbCircle
 10
11.27061
 20
15.234901
 30
0.0
 40
0.29
100
AcDbArc
 50
297.180173
 51
0.0
  0
ARC
  5
1CB
100
AcDbEntity
  8
FULL
100
AcDbCircle
 10
8.68061
 20
15.234901
 30
0.0
 40
0.29
100
AcDbArc
 50
180.0
 51
242.819827
  0
ARC
  5
1F1
100
AcDbEntity
  8
FULL
100
AcDbCircle
 10
9.97561
 20
17.756844
 30
0.0
 40
3.125
100
AcDbArc
 50
253.715758
 51
297.180173
  0
LINE
  5
247
100
AcDbEntity
  8
FULL
100
AcDbLine
 10
5.618399
 20
14.65402
 30
0.0
 11
5.577722
 21
14.733105
 31
0.0
  0
LINE
  5
248
100
AcDbEntity
  8
FULL
100
AcDbLine
 10
5.577722
 20
14.733105
 30
0.0
 11
5.563194
 21
14.817131
 31
0.0
  0
LINE
  5
249
100
AcDbEntity
  8
FULL
100
AcDbLine
 10
5.563194
 20
14.817131
 30
0.0
 11
5.555931
 21
14.880397
 31
0.0
  0
LINE
  5
24A
100
AcDbEntity
  8
FULL
100
AcDbLine
 10
5.555931
 20
14.880397
 30
0.0
 11
5.533102
 21
14.964423
 31
0.0
  0
LINE
  5
24B
100
AcDbEntity
  8
FULL
100
AcDbLine
 10
5.533102
 20
14.964423
 30
0.0
 11
5.504048
 21
15.027689
 31
0.0
  0
LINE
  5
24C
100
AcDbEntity
  8
FULL
100
AcDbLine
 10
5.504048
 20
15.027689
 30
0.0
 11
5.504048
 21
15.062288
 31
0.0
  0
LINE
  5
24D
100
AcDbEntity
  8
FULL
100
AcDbLine
 10
5.504048
 20
15.062288
 30
0.0
 11
5.496784
 21
15.104795
 31
0.0
  0
LINE
  5
24E
100
AcDbEntity
  8
FULL
100
AcDbLine
 10
5.496784
 20
15.104795
 30
0.0
 11
5.48952
 21
15.181901
 31
0.0
  0
LINE
  5
24F
100
AcDbEntity
  8
FULL
100
AcDbLine
 10
5.48952
 20
15.181901
 30
0.0
 11
5.48952
 21
15.238248
 31
0.0
  0
LINE
  5
250
100
AcDbEntity
  8
FULL
100
AcDbLine
 10
5.48952
 20
15.238248
 30
0.0
 11
5.496784
 21
15.287675
 31
0.0
  0
LINE
  5
251
100
AcDbEntity
  8
FULL
100
AcDbLine
 10
5.496784
 20
15.287675
 30
0.0
 11
5.525839
 21
15.371701
 31
0.0
  0
LINE
  5
252
100
AcDbEntity
  8
FULL
100
AcDbLine
 10
5.525839
 20
15.371701
 30
0.0
 11
5.646649
 21
15.570134
 31
0.0
  0
LINE
  5
256
100
AcDbEntity
  8
FULL
100
AcDbLine
 10
5.646649
 20
15.570134
 30
0.0
 11
5.658659
 21
15.743391
 31
0.0
  0
LINE
  5
257
100
AcDbEntity
  8
FULL
100
AcDbLine
 10
5.658659
 20
15.743391
 30
0.0
 11
5.658659
 21
15.919351
 31
0.0
  0
LINE
  5
258
100
AcDbEntity
  8
FULL
100
AcDbLine
 10
5.658659
 20
15.919351
 30
0.0
 11
5.651396
 21
15.996457
 31
0.0
  0
LINE
  5
259
100
AcDbEntity
  8
FULL
100
AcDbLine
 10
5.651396
 20
15.996457
 30
0.0
 11
5.636868
 21
16.059724
 31
0.0
  0
LINE
  5
25A
100
AcDbEntity
  8
FULL
100
AcDbLine
 10
5.636868
 20
16.059724
 30
0.0
 11
5.636868
 21
16.14375
 31
0.0
  0
LINE
  5
25B
100
AcDbEntity
  8
FULL
100
AcDbLine
 10
5.636868
 20
16.14375
 30
0.0
 11
5.651396
 21
16.179337
 31
0.0
  0
LINE
  5
25C
100
AcDbEntity
  8
FULL
100
AcDbLine
 10
5.651396
 20
16.179337
 30
0.0
 11
5.665923
 21
16.227775
 31
0.0
  0
LINE
  5
25D
100
AcDbEntity
  8
FULL
100
AcDbLine
 10
5.665923
 20
16.227775
 30
0.0
 11
5.687714
 21
16.319709
 31
0.0
  0
LINE
  5
25E
100
AcDbEntity
  8
FULL
100
AcDbLine
 10
5.687714
 20
16.319709
 30
0.0
 11
5.725069
 21
16.375068
 31
0.0
  0
LINE
  5
25F
100
AcDbEntity
  8
FULL
100
AcDbLine
 10
5.725069
 20
16.375068
 30
0.0
 11
5.768651
 21
16.431414
 31
0.0
  0
LINE
  5
260
100
AcDbEntity
  8
FULL
100
AcDbLine
 10
5.768651
 20
16.431414
 30
0.0
 11
5.79148
 21
16.50852
 31
0.0
  0
LINE
  5
261
100
AcDbEntity
  8
FULL
100
AcDbLine
 10
5.79148
 20
16.50852
 30
0.0
 11
5.835062
 21
16.537188
 31
0.0
  0
LINE
  5
262
100
AcDbEntity
  8
FULL
100
AcDbLine
 10
5.835062
 20
16.537188
 30
0.0
 11
5.842325
 21
16.557947
 31
0.0
  0
LINE
  5
263
100
AcDbEntity
  8
FULL
100
AcDbLine
 10
5.842325
 20
16.557947
 30
0.0
 11
5.847552
 21
16.562595
 31
0.0
  0
ARC
  5
280
100
AcDbEntity
  8
FULL
100
AcDbCircle
 10
13.810374
 20
14.406844
 30
0.0
 40
3.125
100
AcDbArc
 50
62.819827
 51
117.180173
  0
ARC
  5
281
100
AcDbEntity
  8
FULL
100
AcDbCircle
 10
15.105374
 20
16.928788
 30
0.0
 40
0.29
100
AcDbArc
 50
0.0
 51
62.819827
  0
ARC
  5
282
100
AcDbEntity
  8
FULL
100
AcDbCircle
 10
12.515374
 20
16.928788
 30
0.0
 40
0.29
100
AcDbArc
 50
117.180173
 51
180.0
  0
LINE
  5
283
100
AcDbEntity
  8
FULL
100
AcDbLine
 10
12.225374
 20
16.928788
 30
0.0
 11
12.225374
 21
16.171844
 31
0.0
  0
LINE
  5
284
100
AcDbEntity
  8
FULL
100
AcDbLine
 10
15.395374
 20
16.928788
 30
0.0
 11
15.395374
 21
16.171844
 31
0.0
  0
LINE
  5
285
100
AcDbEntity
  8
FULL
100
AcDbLine
 10
14.484002
 20
13.738349
 30
0.0
 11
13.136746
 21
13.738349
 31
0.0
  0
LINE
  5
286
100
AcDbEntity
  8
FULL
100
AcDbLine
 10
13.128364
 20
13.733112
 30
0.0
 11
14.484002
 21
13.738349
 31
0.0
  0
LINE
  5
287
100
AcDbEntity
  8
FULL
100
AcDbLine
 10
13.163829
 20
13.714255
 30
0.0
 11
14.492384
 21
13.733112
 31
0.0
  0
LINE
  5
288
100
AcDbEntity
  8
FULL
100
AcDbLine
 10
14.456919
 20
13.714255
 30
0.0
 11
13.129766
 21
13.69297
 31
0.0
  0
LINE
  5
289
100
AcDbEntity
  8
FULL
100
AcDbLine
 10
13.165231
 20
13.674113
 30
0.0
 11
14.490982
 21
13.69297
 31
0.0
  0
LINE
  5
28A
100
AcDbEntity
  8
FULL
100
AcDbLine
 10
14.455518
 20
13.674113
 30
0.0
 11
13.131168
 21
13.652828
 31
0.0
  0
LINE
  5
28B
100
AcDbEntity
  8
FULL
100
AcDbLine
 10
13.166632
 20
13.633971
 30
0.0
 11
14.489581
 21
13.652828
 31
0.0
  0
LINE
  5
28C
100
AcDbEntity
  8
FULL
100
AcDbLine
 10
14.454116
 20
13.633971
 30
0.0
 11
13.132569
 21
13.612686
 31
0.0
  0
LINE
  5
28D
100
AcDbEntity
  8
FULL
100
AcDbLine
 10
13.168034
 20
13.593829
 30
0.0
 11
14.488179
 21
13.612686
 31
0.0
  0
LINE
  5
28E
100
AcDbEntity
  8
FULL
100
AcDbLine
 10
14.452714
 20
13.593829
 30
0.0
 11
13.133971
 21
13.572544
 31
0.0
  0
LINE
  5
28F
100
AcDbEntity
  8
FULL
100
AcDbLine
 10
14.486777
 20
13.572544
 30
0.0
 11
13.169436
 21
13.553687
 31
0.0
  0
LINE
  5
290
100
AcDbEntity
  8
FULL
100
AcDbLine
 10
13.135373
 20
13.532403
 30
0.0
 11
14.451312
 21
13.553687
 31
0.0
  0
LINE
  5
291
100
AcDbEntity
  8
FULL
100
AcDbLine
 10
14.485375
 20
13.532403
 30
0.0
 11
13.170838
 21
13.513546
 31
0.0
  0
LINE
  5
292
100
AcDbEntity
  8
FULL
100
AcDbLine
 10
13.136775
 20
13.492261
 30
0.0
 11
14.449911
 21
13.513546
 31
0.0
  0
LINE
  5
293
100
AcDbEntity
  8
FULL
100
AcDbLine
 10
14.483973
 20
13.492261
 30
0.0
 11
13.17224
 21
13.473404
 31
0.0
  0
LINE
  5
294
100
AcDbEntity
  8
FULL
100
AcDbLine
 10
13.138177
 20
13.452119
 30
0.0
 11
14.448509
 21
13.473404
 31
0.0
  0
LINE
  5
295
100
AcDbEntity
  8
FULL
100
AcDbLine
 10
14.482572
 20
13.452119
 30
0.0
 11
13.173641
 21
13.433262
 31
0.0
  0
LINE
  5
296
100
AcDbEntity
  8
FULL
100
AcDbLine
 10
13.139578
 20
13.411977
 30
0.0
 11
14.447107
 21
13.433262
 31
0.0
  0
LINE
  5
297
100
AcDbEntity
  8
FULL
100
AcDbLine
 10
14.48117
 20
13.411977
 30
0.0
 11
13.175043
 21
13.39312
 31
0.0
  0
LINE
  5
298
100
AcDbEntity
  8
FULL
100
AcDbLine
 10
13.14098
 20
13.371835
 30
0.0
 11
14.445705
 21
13.39312
 31
0.0
  0
LINE
  5
299
100
AcDbEntity
  8
FULL
100
AcDbLine
 10
14.479768
 20
13.371835
 30
0.0
 11
13.176445
 21
13.352979
 31
0.0
  0
LINE
  5
29A
100
AcDbEntity
  8
FULL
100
AcDbLine
 10
13.142382
 20
13.331694
 30
0.0
 11
14.444303
 21
13.352979
 31
0.0
  0
LINE
  5
29B
100
AcDbEntity
  8
FULL
100
AcDbLine
 10
14.478366
 20
13.331694
 30
0.0
 11
13.177847
 21
13.312837
 31
0.0
  0
LINE
  5
29C
100
AcDbEntity
  8
FULL
100
AcDbLine
 10
13.143784
 20
13.291552
 30
0.0
 11
14.442902
 21
13.312837
 31
0.0
  0
LINE
  5
29D
100
AcDbEntity
  8
FULL
100
AcDbLine
 10
14.476965
 20
13.291552
 30
0.0
 11
13.179248
 21
13.272695
 31
0.0
  0
LINE
  5
29E
100
AcDbEntity
  8
FULL
100
AcDbLine
 10
13.145186
 20
13.25141
 30
0.0
 11
14.4415
 21
13.272695
 31
0.0
  0
LINE
  5
29F
100
AcDbEntity
  8
FULL
100
AcDbLine
 10
14.475563
 20
13.25141
 30
0.0
 11
13.18065
 21
13.232553
 31
0.0
  0
LINE
  5
2A0
100
AcDbEntity
  8
FULL
100
AcDbLine
 10
14.440098
 20
13.232553
 30
0.0
 11
13.146587
 21
13.211268
 31
0.0
  0
LINE
  5
2A1
100
AcDbEntity
  8
FULL
100
AcDbLine
 10
14.474161
 20
13.211268
 30
0.0
 11
13.182052
 21
13.192411
 31
0.0
  0
LINE
  5
2A2
100
AcDbEntity
  8
FULL
100
AcDbLine
 10
13.147989
 20
13.171127
 30
0.0
 11
14.438696
 21
13.192411
 31
0.0
  0
LINE
  5
2A3
100
AcDbEntity
  8
FULL
100
AcDbLine
 10
14.472759
 20
13.171127
 30
0.0
 11
13.183454
 21
13.15227
 31
0.0
  0
LINE
  5
2A4
100
AcDbEntity
  8
FULL
100
AcDbLine
 10
13.149391
 20
13.130985
 30
0.0
 11
14.437294
 21
13.15227
 31
0.0
  0
LINE
  5
2A5
100
AcDbEntity
  8
FULL
100
AcDbLine
 10
14.471357
 20
13.130985
 30
0.0
 11
13.184856
 21
13.112128
 31
0.0
  0
LINE
  5
2A6
100
AcDbEntity
  8
FULL
100
AcDbLine
 10
14.435893
 20
13.112128
 30
0.0
 11
13.150793
 21
13.090843
 31
0.0
  0
LINE
  5
2A7
100
AcDbEntity
  8
FULL
100
AcDbLine
 10
13.186257
 20
13.071986
 30
0.0
 11
14.469956
 21
13.090843
 31
0.0
  0
LINE
  5
2A8
100
AcDbEntity
  8
FULL
100
AcDbLine
 10
14.434491
 20
13.071986
 30
0.0
 11
13.152194
 21
13.050701
 31
0.0
  0
LINE
  5
2A9
100
AcDbEntity
  8
FULL
100
AcDbLine
 10
13.187659
 20
13.031844
 30
0.0
 11
14.468554
 21
13.050701
 31
0.0
  0
LINE
  5
2AA
100
AcDbEntity
  8
FULL
100
AcDbLine
 10
14.433089
 20
13.031844
 30
0.0
 11
14.468554
 21
13.050701
 31
0.0
  0
LINE
  5
2AB
100
AcDbEntity
  8
FULL
100
AcDbLine
 10
14.434491
 20
13.071986
 30
0.0
 11
14.468554
 21
13.050701
 31
0.0
  0
LINE
  5
2AC
100
AcDbEntity
  8
FULL
100
AcDbLine
 10
14.434491
 20
13.071986
 30
0.0
 11
14.469956
 21
13.090843
 31
0.0
  0
LINE
  5
2AD
100
AcDbEntity
  8
FULL
100
AcDbLine
 10
14.435893
 20
13.112128
 30
0.0
 11
14.469956
 21
13.090843
 31
0.0
  0
LINE
  5
2AE
100
AcDbEntity
  8
FULL
100
AcDbLine
 10
14.437294
 20
13.15227
 30
0.0
 11
14.471357
 21
13.130985
 31
0.0
  0
LINE
  5
2AF
100
AcDbEntity
  8
FULL
100
AcDbLine
 10
14.435893
 20
13.112128
 30
0.0
 11
14.471357
 21
13.130985
 31
0.0
  0
LINE
  5
2B0
100
AcDbEntity
  8
FULL
100
AcDbLine
 10
14.438696
 20
13.192411
 30
0.0
 11
14.472759
 21
13.171127
 31
0.0
  0
LINE
  5
2B1
100
AcDbEntity
  8
FULL
100
AcDbLine
 10
14.437294
 20
13.15227
 30
0.0
 11
14.472759
 21
13.171127
 31
0.0
  0
LINE
  5
2B2
100
AcDbEntity
  8
FULL
100
AcDbLine
 10
14.4415
 20
13.272695
 30
0.0
 11
14.476965
 21
13.291552
 31
0.0
  0
LINE
  5
2B3
100
AcDbEntity
  8
FULL
100
AcDbLine
 10
14.442902
 20
13.312837
 30
0.0
 11
14.476965
 21
13.291552
 31
0.0
  0
LINE
  5
2B4
100
AcDbEntity
  8
FULL
100
AcDbLine
 10
14.442902
 20
13.312837
 30
0.0
 11
14.478366
 21
13.331694
 31
0.0
  0
LINE
  5
2B5
100
AcDbEntity
  8
FULL
100
AcDbLine
 10
14.444303
 20
13.352979
 30
0.0
 11
14.478366
 21
13.331694
 31
0.0
  0
LINE
  5
2B6
100
AcDbEntity
  8
FULL
100
AcDbLine
 10
14.4415
 20
13.272695
 30
0.0
 11
14.475563
 21
13.25141
 31
0.0
  0
LINE
  5
2B7
100
AcDbEntity
  8
FULL
100
AcDbLine
 10
14.440098
 20
13.232553
 30
0.0
 11
14.475563
 21
13.25141
 31
0.0
  0
LINE
  5
2B8
100
AcDbEntity
  8
FULL
100
AcDbLine
 10
14.440098
 20
13.232553
 30
0.0
 11
14.474161
 21
13.211268
 31
0.0
  0
LINE
  5
2B9
100
AcDbEntity
  8
FULL
100
AcDbLine
 10
14.438696
 20
13.192411
 30
0.0
 11
14.474161
 21
13.211268
 31
0.0
  0
LINE
  5
2BA
100
AcDbEntity
  8
FULL
100
AcDbLine
 10
14.449911
 20
13.513546
 30
0.0
 11
14.485375
 21
13.532403
 31
0.0
  0
LINE
  5
2BB
100
AcDbEntity
  8
FULL
100
AcDbLine
 10
14.451312
 20
13.553687
 30
0.0
 11
14.485375
 21
13.532403
 31
0.0
  0
LINE
  5
2BC
100
AcDbEntity
  8
FULL
100
AcDbLine
 10
14.451312
 20
13.553687
 30
0.0
 11
14.486777
 21
13.572544
 31
0.0
  0
LINE
  5
2BD
100
AcDbEntity
  8
FULL
100
AcDbLine
 10
14.452714
 20
13.593829
 30
0.0
 11
14.486777
 21
13.572544
 31
0.0
  0
LINE
  5
2BE
100
AcDbEntity
  8
FULL
100
AcDbLine
 10
14.455518
 20
13.674113
 30
0.0
 11
14.489581
 21
13.652828
 31
0.0
  0
LINE
  5
2BF
100
AcDbEntity
  8
FULL
100
AcDbLine
 10
14.454116
 20
13.633971
 30
0.0
 11
14.489581
 21
13.652828
 31
0.0
  0
LINE
  5
2C0
100
AcDbEntity
  8
FULL
100
AcDbLine
 10
14.454116
 20
13.633971
 30
0.0
 11
14.488179
 21
13.612686
 31
0.0
  0
LINE
  5
2C1
100
AcDbEntity
  8
FULL
100
AcDbLine
 10
14.452714
 20
13.593829
 30
0.0
 11
14.488179
 21
13.612686
 31
0.0
  0
LINE
  5
2C2
100
AcDbEntity
  8
FULL
100
AcDbLine
 10
14.447107
 20
13.433262
 30
0.0
 11
14.482572
 21
13.452119
 31
0.0
  0
LINE
  5
2C3
100
AcDbEntity
  8
FULL
100
AcDbLine
 10
14.448509
 20
13.473404
 30
0.0
 11
14.482572
 21
13.452119
 31
0.0
  0
LINE
  5
2C4
100
AcDbEntity
  8
FULL
100
AcDbLine
 10
14.448509
 20
13.473404
 30
0.0
 11
14.483973
 21
13.492261
 31
0.0
  0
LINE
  5
2C5
100
AcDbEntity
  8
FULL
100
AcDbLine
 10
14.449911
 20
13.513546
 30
0.0
 11
14.483973
 21
13.492261
 31
0.0
  0
LINE
  5
2C6
100
AcDbEntity
  8
FULL
100
AcDbLine
 10
14.447107
 20
13.433262
 30
0.0
 11
14.48117
 21
13.411977
 31
0.0
  0
LINE
  5
2C7
100
AcDbEntity
  8
FULL
100
AcDbLine
 10
14.445705
 20
13.39312
 30
0.0
 11
14.48117
 21
13.411977
 31
0.0
  0
LINE
  5
2C8
100
AcDbEntity
  8
FULL
100
AcDbLine
 10
14.445705
 20
13.39312
 30
0.0
 11
14.479768
 21
13.371835
 31
0.0
  0
LINE
  5
2C9
100
AcDbEntity
  8
FULL
100
AcDbLine
 10
14.444303
 20
13.352979
 30
0.0
 11
14.479768
 21
13.371835
 31
0.0
  0
LINE
  5
2CA
100
AcDbEntity
  8
FULL
100
AcDbLine
 10
14.484002
 20
13.738349
 30
0.0
 11
14.492384
 21
13.733112
 31
0.0
  0
LINE
  5
2CB
100
AcDbEntity
  8
FULL
100
AcDbLine
 10
14.456919
 20
13.714255
 30
0.0
 11
14.492384
 21
13.733112
 31
0.0
  0
LINE
  5
2CC
100
AcDbEntity
  8
FULL
100
AcDbLine
 10
14.456919
 20
13.714255
 30
0.0
 11
14.490982
 21
13.69297
 31
0.0
  0
LINE
  5
2CD
100
AcDbEntity
  8
FULL
100
AcDbLine
 10
14.455518
 20
13.674113
 30
0.0
 11
14.490982
 21
13.69297
 31
0.0
  0
LINE
  5
2CE
100
AcDbEntity
  8
FULL
100
AcDbLine
 10
14.484002
 20
13.738349
 30
0.0
 11
14.510481
 21
14.496591
 31
0.0
  0
ARC
  5
2CF
100
AcDbEntity
  8
FULL
100
AcDbCircle
 10
14.755331
 20
14.48804
 30
0.0
 40
0.245
100
AcDbArc
 50
106.284242
 51
178.0
  0
ARC
  5
2D0
100
AcDbEntity
  8
FULL
100
AcDbCircle
 10
12.865417
 20
14.48804
 30
0.0
 40
0.245
100
AcDbArc
 50
2.0
 51
73.715758
  0
ARC
  5
2D1
100
AcDbEntity
  8
FULL
100
AcDbCircle
 10
13.810374
 20
17.722844
 30
0.0
 40
3.125
100
AcDbArc
 50
253.715758
 51
297.180173
  0
LINE
  5
2D2
100
AcDbEntity
  8
FULL
100
AcDbLine
 10
13.136746
 20
13.738349
 30
0.0
 11
13.110268
 21
14.496591
 31
0.0
  0
LINE
  5
2D3
100
AcDbEntity
  8
FULL
100
AcDbLine
 10
13.165231
 20
13.674113
 30
0.0
 11
13.129766
 21
13.69297
 31
0.0
  0
LINE
  5
2D4
100
AcDbEntity
  8
FULL
100
AcDbLine
 10
13.163829
 20
13.714255
 30
0.0
 11
13.129766
 21
13.69297
 31
0.0
  0
LINE
  5
2D5
100
AcDbEntity
  8
FULL
100
AcDbLine
 10
13.163829
 20
13.714255
 30
0.0
 11
13.128364
 21
13.733112
 31
0.0
  0
LINE
  5
2D6
100
AcDbEntity
  8
FULL
100
AcDbLine
 10
13.136746
 20
13.738349
 30
0.0
 11
13.128364
 21
13.733112
 31
0.0
  0
LINE
  5
2D7
100
AcDbEntity
  8
FULL
100
AcDbLine
 10
13.176445
 20
13.352979
 30
0.0
 11
13.14098
 21
13.371835
 31
0.0
  0
LINE
  5
2D8
100
AcDbEntity
  8
FULL
100
AcDbLine
 10
13.175043
 20
13.39312
 30
0.0
 11
13.14098
 21
13.371835
 31
0.0
  0
LINE
  5
2D9
100
AcDbEntity
  8
FULL
100
AcDbLine
 10
13.175043
 20
13.39312
 30
0.0
 11
13.139578
 21
13.411977
 31
0.0
  0
LINE
  5
2DA
100
AcDbEntity
  8
FULL
100
AcDbLine
 10
13.173641
 20
13.433262
 30
0.0
 11
13.139578
 21
13.411977
 31
0.0
  0
LINE
  5
2DB
100
AcDbEntity
  8
FULL
100
AcDbLine
 10
13.170838
 20
13.513546
 30
0.0
 11
13.136775
 21
13.492261
 31
0.0
  0
LINE
  5
2DC
100
AcDbEntity
  8
FULL
100
AcDbLine
 10
13.17224
 20
13.473404
 30
0.0
 11
13.136775
 21
13.492261
 31
0.0
  0
LINE
  5
2DD
100
AcDbEntity
  8
FULL
100
AcDbLine
 10
13.17224
 20
13.473404
 30
0.0
 11
13.138177
 21
13.452119
 31
0.0
  0
LINE
  5
2DE
100
AcDbEntity
  8
FULL
100
AcDbLine
 10
13.173641
 20
13.433262
 30
0.0
 11
13.138177
 21
13.452119
 31
0.0
  0
LINE
  5
2DF
100
AcDbEntity
  8
FULL
100
AcDbLine
 10
13.168034
 20
13.593829
 30
0.0
 11
13.132569
 21
13.612686
 31
0.0
  0
LINE
  5
2E0
100
AcDbEntity
  8
FULL
100
AcDbLine
 10
13.166632
 20
13.633971
 30
0.0
 11
13.132569
 21
13.612686
 31
0.0
  0
LINE
  5
2E1
100
AcDbEntity
  8
FULL
100
AcDbLine
 10
13.166632
 20
13.633971
 30
0.0
 11
13.131168
 21
13.652828
 31
0.0
  0
LINE
  5
2E2
100
AcDbEntity
  8
FULL
100
AcDbLine
 10
13.165231
 20
13.674113
 30
0.0
 11
13.131168
 21
13.652828
 31
0.0
  0
LINE
  5
2E3
100
AcDbEntity
  8
FULL
100
AcDbLine
 10
13.168034
 20
13.593829
 30
0.0
 11
13.133971
 21
13.572544
 31
0.0
  0
LINE
  5
2E4
100
AcDbEntity
  8
FULL
100
AcDbLine
 10
13.169436
 20
13.553687
 30
0.0
 11
13.133971
 21
13.572544
 31
0.0
  0
LINE
  5
2E5
100
AcDbEntity
  8
FULL
100
AcDbLine
 10
13.169436
 20
13.553687
 30
0.0
 11
13.135373
 21
13.532403
 31
0.0
  0
LINE
  5
2E6
100
AcDbEntity
  8
FULL
100
AcDbLine
 10
13.170838
 20
13.513546
 30
0.0
 11
13.135373
 21
13.532403
 31
0.0
  0
LINE
  5
2E7
100
AcDbEntity
  8
FULL
100
AcDbLine
 10
13.182052
 20
13.192411
 30
0.0
 11
13.146587
 21
13.211268
 31
0.0
  0
LINE
  5
2E8
100
AcDbEntity
  8
FULL
100
AcDbLine
 10
13.18065
 20
13.232553
 30
0.0
 11
13.146587
 21
13.211268
 31
0.0
  0
LINE
  5
2E9
100
AcDbEntity
  8
FULL
100
AcDbLine
 10
13.18065
 20
13.232553
 30
0.0
 11
13.145186
 21
13.25141
 31
0.0
  0
LINE
  5
2EA
100
AcDbEntity
  8
FULL
100
AcDbLine
 10
13.179248
 20
13.272695
 30
0.0
 11
13.145186
 21
13.25141
 31
0.0
  0
LINE
  5
2EB
100
AcDbEntity
  8
FULL
100
AcDbLine
 10
13.176445
 20
13.352979
 30
0.0
 11
13.142382
 21
13.331694
 31
0.0
  0
LINE
  5
2EC
100
AcDbEntity
  8
FULL
100
AcDbLine
 10
13.177847
 20
13.312837
 30
0.0
 11
13.142382
 21
13.331694
 31
0.0
  0
LINE
  5
2ED
100
AcDbEntity
  8
FULL
100
AcDbLine
 10
13.177847
 20
13.312837
 30
0.0
 11
13.143784
 21
13.291552
 31
0.0
  0
LINE
  5
2EE
100
AcDbEntity
  8
FULL
100
AcDbLine
 10
13.179248
 20
13.272695
 30
0.0
 11
13.143784
 21
13.291552
 31
0.0
  0
LINE
  5
2EF
100
AcDbEntity
  8
FULL
100
AcDbLine
 10
13.184856
 20
13.112128
 30
0.0
 11
13.149391
 21
13.130985
 31
0.0
  0
LINE
  5
2F0
100
AcDbEntity
  8
FULL
100
AcDbLine
 10
13.183454
 20
13.15227
 30
0.0
 11
13.149391
 21
13.130985
 31
0.0
  0
LINE
  5
2F1
100
AcDbEntity
  8
FULL
100
AcDbLine
 10
13.183454
 20
13.15227
 30
0.0
 11
13.147989
 21
13.171127
 31
0.0
  0
LINE
  5
2F2
100
AcDbEntity
  8
FULL
100
AcDbLine
 10
13.182052
 20
13.192411
 30
0.0
 11
13.147989
 21
13.171127
 31
0.0
  0
LINE
  5
2F3
100
AcDbEntity
  8
FULL
100
AcDbLine
 10
13.184856
 20
13.112128
 30
0.0
 11
13.150793
 21
13.090843
 31
0.0
  0
LINE
  5
2F4
100
AcDbEntity
  8
FULL
100
AcDbLine
 10
13.186257
 20
13.071986
 30
0.0
 11
13.150793
 21
13.090843
 31
0.0
  0
LINE
  5
2F5
100
AcDbEntity
  8
FULL
100
AcDbLine
 10
13.186257
 20
13.071986
 30
0.0
 11
13.152194
 21
13.050701
 31
0.0
  0
LINE
  5
2F6
100
AcDbEntity
  8
FULL
100
AcDbLine
 10
13.187659
 20
13.031844
 30
0.0
 11
13.152194
 21
13.050701
 31
0.0
  0
ARC
  5
2F7
100
AcDbEntity
  8
FULL
100
AcDbCircle
 10
12.515374
 20
15.200901
 30
0.0
 40
0.29
100
AcDbArc
 50
180.0
 51
242.819827
  0
ARC
  5
2F8
100
AcDbEntity
  8
FULL
100
AcDbCircle
 10
15.105374
 20
15.200901
 30
0.0
 40
0.29
100
AcDbArc
 50
297.180173
 51
0.0
  0
ARC
  5
2F9
100
AcDbEntity
  8
FULL
100
AcDbCircle
 10
13.810374
 20
17.722844
 30
0.0
 40
3.125
100
AcDbArc
 50
242.819827
 51
253.715758
  0
LINE
  5
2FA
100
AcDbEntity
  8
FULL
100
AcDbLine
 10
13.187659
 20
13.031844
 30
0.0
 11
14.433089
 21
13.031844
 31
0.0
  0
LINE
  5
307
100
AcDbEntity
  8
FULL
100
AcDbLine
 10
12.225374
 20
15.957844
 30
0.0
 11
12.225374
 21
15.200901
 31
0.0
  0
LINE
  5
308
100
AcDbEntity
  8
FULL
100
AcDbLine
 10
15.395374
 20
15.957844
 30
0.0
 11
15.395374
 21
15.200901
 31
0.0
  0
ARC
  5
309
100
AcDbEntity
  8
FULL
100
AcDbCircle
 10
16.587265
 20
19.053788
 30
0.0
 40
0.29
100
AcDbArc
 50
117.180173
 51
180.0
  0
ARC
  5
30A
100
AcDbEntity
  8
FULL
100
AcDbCircle
 10
19.177265
 20
19.053788
 30
0.0
 40
0.29
100
AcDbArc
 50
0.0
 51
62.819827
  0
ARC
  5
30B
100
AcDbEntity
  8
FULL
100
AcDbCircle
 10
17.882265
 20
16.531844
 30
0.0
 40
3.125
100
AcDbArc
 50
62.819827
 51
117.180173
  0
LINE
  5
30C
100
AcDbEntity
  8
FULL
100
AcDbLine
 10
16.297265
 20
19.053788
 30
0.0
 11
16.297265
 21
17.234344
 31
0.0
  0
LINE
  5
30D
100
AcDbEntity
  8
FULL
100
AcDbLine
 10
19.467265
 20
19.053788
 30
0.0
 11
19.467265
 21
17.234344
 31
0.0
  0
LINE
  5
30E
100
AcDbEntity
  8
FULL
100
AcDbLine
 10
17.25955
 20
13.031844
 30
0.0
 11
18.50498
 21
13.031844
 31
0.0
  0
ARC
  5
30F
100
AcDbEntity
  8
FULL
100
AcDbCircle
 10
17.882265
 20
17.722844
 30
0.0
 40
3.125
100
AcDbArc
 50
242.819827
 51
253.715758
  0
ARC
  5
310
100
AcDbEntity
  8
FULL
100
AcDbCircle
 10
19.177265
 20
15.200901
 30
0.0
 40
0.29
100
AcDbArc
 50
297.180173
 51
0.0
  0
ARC
  5
311
100
AcDbEntity
  8
FULL
100
AcDbCircle
 10
16.587265
 20
15.200901
 30
0.0
 40
0.29
100
AcDbArc
 50
180.0
 51
242.819827
  0
LINE
  5
312
100
AcDbEntity
  8
FULL
100
AcDbLine
 10
17.25955
 20
13.031844
 30
0.0
 11
17.224086
 21
13.050701
 31
0.0
  0
LINE
  5
313
100
AcDbEntity
  8
FULL
100
AcDbLine
 10
17.258149
 20
13.071986
 30
0.0
 11
17.224086
 21
13.050701
 31
0.0
  0
LINE
  5
314
100
AcDbEntity
  8
FULL
100
AcDbLine
 10
17.258149
 20
13.071986
 30
0.0
 11
17.222684
 21
13.090843
 31
0.0
  0
LINE
  5
315
100
AcDbEntity
  8
FULL
100
AcDbLine
 10
17.256747
 20
13.112128
 30
0.0
 11
17.222684
 21
13.090843
 31
0.0
  0
LINE
  5
316
100
AcDbEntity
  8
FULL
100
AcDbLine
 10
17.253943
 20
13.192411
 30
0.0
 11
17.21988
 21
13.171127
 31
0.0
  0
LINE
  5
317
100
AcDbEntity
  8
FULL
100
AcDbLine
 10
17.255345
 20
13.15227
 30
0.0
 11
17.21988
 21
13.171127
 31
0.0
  0
LINE
  5
318
100
AcDbEntity
  8
FULL
100
AcDbLine
 10
17.255345
 20
13.15227
 30
0.0
 11
17.221282
 21
13.130985
 31
0.0
  0
LINE
  5
319
100
AcDbEntity
  8
FULL
100
AcDbLine
 10
17.256747
 20
13.112128
 30
0.0
 11
17.221282
 21
13.130985
 31
0.0
  0
LINE
  5
31A
100
AcDbEntity
  8
FULL
100
AcDbLine
 10
17.25114
 20
13.272695
 30
0.0
 11
17.215675
 21
13.291552
 31
0.0
  0
LINE
  5
31B
100
AcDbEntity
  8
FULL
100
AcDbLine
 10
17.249738
 20
13.312837
 30
0.0
 11
17.215675
 21
13.291552
 31
0.0
  0
LINE
  5
31C
100
AcDbEntity
  8
FULL
100
AcDbLine
 10
17.249738
 20
13.312837
 30
0.0
 11
17.214273
 21
13.331694
 31
0.0
  0
LINE
  5
31D
100
AcDbEntity
  8
FULL
100
AcDbLine
 10
17.248336
 20
13.352979
 30
0.0
 11
17.214273
 21
13.331694
 31
0.0
  0
LINE
  5
31E
100
AcDbEntity
  8
FULL
100
AcDbLine
 10
17.25114
 20
13.272695
 30
0.0
 11
17.217077
 21
13.25141
 31
0.0
  0
LINE
  5
31F
100
AcDbEntity
  8
FULL
100
AcDbLine
 10
17.252541
 20
13.232553
 30
0.0
 11
17.217077
 21
13.25141
 31
0.0
  0
LINE
  5
320
100
AcDbEntity
  8
FULL
100
AcDbLine
 10
17.252541
 20
13.232553
 30
0.0
 11
17.218478
 21
13.211268
 31
0.0
  0
LINE
  5
321
100
AcDbEntity
  8
FULL
100
AcDbLine
 10
17.253943
 20
13.192411
 30
0.0
 11
17.218478
 21
13.211268
 31
0.0
  0
LINE
  5
322
100
AcDbEntity
  8
FULL
100
AcDbLine
 10
17.242729
 20
13.513546
 30
0.0
 11
17.207264
 21
13.532403
 31
0.0
  0
LINE
  5
323
100
AcDbEntity
  8
FULL
100
AcDbLine
 10
17.241327
 20
13.553687
 30
0.0
 11
17.207264
 21
13.532403
 31
0.0
  0
LINE
  5
324
100
AcDbEntity
  8
FULL
100
AcDbLine
 10
17.241327
 20
13.553687
 30
0.0
 11
17.205862
 21
13.572544
 31
0.0
  0
LINE
  5
325
100
AcDbEntity
  8
FULL
100
AcDbLine
 10
17.239925
 20
13.593829
 30
0.0
 11
17.205862
 21
13.572544
 31
0.0
  0
LINE
  5
326
100
AcDbEntity
  8
FULL
100
AcDbLine
 10
17.237122
 20
13.674113
 30
0.0
 11
17.203059
 21
13.652828
 31
0.0
  0
LINE
  5
327
100
AcDbEntity
  8
FULL
100
AcDbLine
 10
17.238524
 20
13.633971
 30
0.0
 11
17.203059
 21
13.652828
 31
0.0
  0
LINE
  5
328
100
AcDbEntity
  8
FULL
100
AcDbLine
 10
17.238524
 20
13.633971
 30
0.0
 11
17.204461
 21
13.612686
 31
0.0
  0
LINE
  5
329
100
AcDbEntity
  8
FULL
100
AcDbLine
 10
17.239925
 20
13.593829
 30
0.0
 11
17.204461
 21
13.612686
 31
0.0
  0
LINE
  5
32A
100
AcDbEntity
  8
FULL
100
AcDbLine
 10
17.245532
 20
13.433262
 30
0.0
 11
17.210068
 21
13.452119
 31
0.0
  0
LINE
  5
32B
100
AcDbEntity
  8
FULL
100
AcDbLine
 10
17.244131
 20
13.473404
 30
0.0
 11
17.210068
 21
13.452119
 31
0.0
  0
LINE
  5
32C
100
AcDbEntity
  8
FULL
100
AcDbLine
 10
17.244131
 20
13.473404
 30
0.0
 11
17.208666
 21
13.492261
 31
0.0
  0
LINE
  5
32D
100
AcDbEntity
  8
FULL
100
AcDbLine
 10
17.242729
 20
13.513546
 30
0.0
 11
17.208666
 21
13.492261
 31
0.0
  0
LINE
  5
32E
100
AcDbEntity
  8
FULL
100
AcDbLine
 10
17.245532
 20
13.433262
 30
0.0
 11
17.21147
 21
13.411977
 31
0.0
  0
LINE
  5
32F
100
AcDbEntity
  8
FULL
100
AcDbLine
 10
17.246934
 20
13.39312
 30
0.0
 11
17.21147
 21
13.411977
 31
0.0
  0
LINE
  5
330
100
AcDbEntity
  8
FULL
100
AcDbLine
 10
17.246934
 20
13.39312
 30
0.0
 11
17.212871
 21
13.371835
 31
0.0
  0
LINE
  5
331
100
AcDbEntity
  8
FULL
100
AcDbLine
 10
17.248336
 20
13.352979
 30
0.0
 11
17.212871
 21
13.371835
 31
0.0
  0
LINE
  5
332
100
AcDbEntity
  8
FULL
100
AcDbLine
 10
17.208637
 20
13.738349
 30
0.0
 11
17.200255
 21
13.733112
 31
0.0
  0
LINE
  5
333
100
AcDbEntity
  8
FULL
100
AcDbLine
 10
17.23572
 20
13.714255
 30
0.0
 11
17.200255
 21
13.733112
 31
0.0
  0
LINE
  5
334
100
AcDbEntity
  8
FULL
100
AcDbLine
 10
17.23572
 20
13.714255
 30
0.0
 11
17.201657
 21
13.69297
 31
0.0
  0
LINE
  5
335
100
AcDbEntity
  8
FULL
100
AcDbLine
 10
17.237122
 20
13.674113
 30
0.0
 11
17.201657
 21
13.69297
 31
0.0
  0
LINE
  5
336
100
AcDbEntity
  8
FULL
100
AcDbLine
 10
17.208637
 20
13.738349
 30
0.0
 11
17.182159
 21
14.496591
 31
0.0
  0
ARC
  5
337
100
AcDbEntity
  8
FULL
100
AcDbCircle
 10
17.882265
 20
17.722844
 30
0.0
 40
3.125
100
AcDbArc
 50
253.715758
 51
297.180173
  0
ARC
  5
338
100
AcDbEntity
  8
FULL
100
AcDbCircle
 10
16.937308
 20
14.48804
 30
0.0
 40
0.245
100
AcDbArc
 50
2.0
 51
73.715758
  0
ARC
  5
339
100
AcDbEntity
  8
FULL
100
AcDbCircle
 10
18.827222
 20
14.48804
 30
0.0
 40
0.245
100
AcDbArc
 50
106.284242
 51
178.0
  0
LINE
  5
33A
100
AcDbEntity
  8
FULL
100
AcDbLine
 10
18.555893
 20
13.738349
 30
0.0
 11
18.582372
 21
14.496591
 31
0.0
  0
LINE
  5
33B
100
AcDbEntity
  8
FULL
100
AcDbLine
 10
18.527409
 20
13.674113
 30
0.0
 11
18.562874
 21
13.69297
 31
0.0
  0
LINE
  5
33C
100
AcDbEntity
  8
FULL
100
AcDbLine
 10
18.528811
 20
13.714255
 30
0.0
 11
18.562874
 21
13.69297
 31
0.0
  0
LINE
  5
33D
100
AcDbEntity
  8
FULL
100
AcDbLine
 10
18.528811
 20
13.714255
 30
0.0
 11
18.564275
 21
13.733112
 31
0.0
  0
LINE
  5
33E
100
AcDbEntity
  8
FULL
100
AcDbLine
 10
18.555893
 20
13.738349
 30
0.0
 11
18.564275
 21
13.733112
 31
0.0
  0
LINE
  5
33F
100
AcDbEntity
  8
FULL
100
AcDbLine
 10
18.516195
 20
13.352979
 30
0.0
 11
18.551659
 21
13.371835
 31
0.0
  0
LINE
  5
340
100
AcDbEntity
  8
FULL
100
AcDbLine
 10
18.517596
 20
13.39312
 30
0.0
 11
18.551659
 21
13.371835
 31
0.0
  0
LINE
  5
341
100
AcDbEntity
  8
FULL
100
AcDbLine
 10
18.517596
 20
13.39312
 30
0.0
 11
18.553061
 21
13.411977
 31
0.0
  0
LINE
  5
342
100
AcDbEntity
  8
FULL
100
AcDbLine
 10
18.518998
 20
13.433262
 30
0.0
 11
18.553061
 21
13.411977
 31
0.0
  0
LINE
  5
343
100
AcDbEntity
  8
FULL
100
AcDbLine
 10
18.521802
 20
13.513546
 30
0.0
 11
18.555865
 21
13.492261
 31
0.0
  0
LINE
  5
344
100
AcDbEntity
  8
FULL
100
AcDbLine
 10
18.5204
 20
13.473404
 30
0.0
 11
18.555865
 21
13.492261
 31
0.0
  0
LINE
  5
345
100
AcDbEntity
  8
FULL
100
AcDbLine
 10
18.5204
 20
13.473404
 30
0.0
 11
18.554463
 21
13.452119
 31
0.0
  0
LINE
  5
346
100
AcDbEntity
  8
FULL
100
AcDbLine
 10
18.518998
 20
13.433262
 30
0.0
 11
18.554463
 21
13.452119
 31
0.0
  0
LINE
  5
347
100
AcDbEntity
  8
FULL
100
AcDbLine
 10
18.524605
 20
13.593829
 30
0.0
 11
18.56007
 21
13.612686
 31
0.0
  0
LINE
  5
348
100
AcDbEntity
  8
FULL
100
AcDbLine
 10
18.526007
 20
13.633971
 30
0.0
 11
18.56007
 21
13.612686
 31
0.0
  0
LINE
  5
349
100
AcDbEntity
  8
FULL
100
AcDbLine
 10
18.526007
 20
13.633971
 30
0.0
 11
18.561472
 21
13.652828
 31
0.0
  0
LINE
  5
34A
100
AcDbEntity
  8
FULL
100
AcDbLine
 10
18.527409
 20
13.674113
 30
0.0
 11
18.561472
 21
13.652828
 31
0.0
  0
LINE
  5
34B
100
AcDbEntity
  8
FULL
100
AcDbLine
 10
18.524605
 20
13.593829
 30
0.0
 11
18.558668
 21
13.572544
 31
0.0
  0
LINE
  5
34C
100
AcDbEntity
  8
FULL
100
AcDbLine
 10
18.523203
 20
13.553687
 30
0.0
 11
18.558668
 21
13.572544
 31
0.0
  0
LINE
  5
34D
100
AcDbEntity
  8
FULL
100
AcDbLine
 10
18.523203
 20
13.553687
 30
0.0
 11
18.557266
 21
13.532403
 31
0.0
  0
LINE
  5
34E
100
AcDbEntity
  8
FULL
100
AcDbLine
 10
18.521802
 20
13.513546
 30
0.0
 11
18.557266
 21
13.532403
 31
0.0
  0
LINE
  5
34F
100
AcDbEntity
  8
FULL
100
AcDbLine
 10
18.510587
 20
13.192411
 30
0.0
 11
18.546052
 21
13.211268
 31
0.0
  0
LINE
  5
350
100
AcDbEntity
  8
FULL
100
AcDbLine
 10
18.511989
 20
13.232553
 30
0.0
 11
18.546052
 21
13.211268
 31
0.0
  0
LINE
  5
351
100
AcDbEntity
  8
FULL
100
AcDbLine
 10
18.511989
 20
13.232553
 30
0.0
 11
18.547454
 21
13.25141
 31
0.0
  0
LINE
  5
352
100
AcDbEntity
  8
FULL
100
AcDbLine
 10
18.513391
 20
13.272695
 30
0.0
 11
18.547454
 21
13.25141
 31
0.0
  0
LINE
  5
353
100
AcDbEntity
  8
FULL
100
AcDbLine
 10
18.516195
 20
13.352979
 30
0.0
 11
18.550257
 21
13.331694
 31
0.0
  0
LINE
  5
354
100
AcDbEntity
  8
FULL
100
AcDbLine
 10
18.514793
 20
13.312837
 30
0.0
 11
18.550257
 21
13.331694
 31
0.0
  0
LINE
  5
355
100
AcDbEntity
  8
FULL
100
AcDbLine
 10
18.514793
 20
13.312837
 30
0.0
 11
18.548856
 21
13.291552
 31
0.0
  0
LINE
  5
356
100
AcDbEntity
  8
FULL
100
AcDbLine
 10
18.513391
 20
13.272695
 30
0.0
 11
18.548856
 21
13.291552
 31
0.0
  0
LINE
  5
357
100
AcDbEntity
  8
FULL
100
AcDbLine
 10
18.509186
 20
13.15227
 30
0.0
 11
18.54465
 21
13.171127
 31
0.0
  0
LINE
  5
358
100
AcDbEntity
  8
FULL
100
AcDbLine
 10
18.510587
 20
13.192411
 30
0.0
 11
18.54465
 21
13.171127
 31
0.0
  0
LINE
  5
359
100
AcDbEntity
  8
FULL
100
AcDbLine
 10
18.507784
 20
13.112128
 30
0.0
 11
18.543249
 21
13.130985
 31
0.0
  0
LINE
  5
35A
100
AcDbEntity
  8
FULL
100
AcDbLine
 10
18.509186
 20
13.15227
 30
0.0
 11
18.543249
 21
13.130985
 31
0.0
  0
LINE
  5
35B
100
AcDbEntity
  8
FULL
100
AcDbLine
 10
18.507784
 20
13.112128
 30
0.0
 11
18.541847
 21
13.090843
 31
0.0
  0
LINE
  5
35C
100
AcDbEntity
  8
FULL
100
AcDbLine
 10
18.506382
 20
13.071986
 30
0.0
 11
18.541847
 21
13.090843
 31
0.0
  0
LINE
  5
35D
100
AcDbEntity
  8
FULL
100
AcDbLine
 10
18.506382
 20
13.071986
 30
0.0
 11
18.540445
 21
13.050701
 31
0.0
  0
LINE
  5
35E
100
AcDbEntity
  8
FULL
100
AcDbLine
 10
18.50498
 20
13.031844
 30
0.0
 11
18.540445
 21
13.050701
 31
0.0
  0
LINE
  5
35F
100
AcDbEntity
  8
FULL
100
AcDbLine
 10
17.25955
 20
13.031844
 30
0.0
 11
18.540445
 21
13.050701
 31
0.0
  0
LINE
  5
360
100
AcDbEntity
  8
FULL
100
AcDbLine
 10
18.506382
 20
13.071986
 30
0.0
 11
17.224086
 21
13.050701
 31
0.0
  0
LINE
  5
361
100
AcDbEntity
  8
FULL
100
AcDbLine
 10
17.258149
 20
13.071986
 30
0.0
 11
18.541847
 21
13.090843
 31
0.0
  0
LINE
  5
362
100
AcDbEntity
  8
FULL
100
AcDbLine
 10
18.507784
 20
13.112128
 30
0.0
 11
17.222684
 21
13.090843
 31
0.0
  0
LINE
  5
363
100
AcDbEntity
  8
FULL
100
AcDbLine
 10
18.543249
 20
13.130985
 30
0.0
 11
17.256747
 21
13.112128
 31
0.0
  0
LINE
  5
364
100
AcDbEntity
  8
FULL
100
AcDbLine
 10
17.221282
 20
13.130985
 30
0.0
 11
18.509186
 21
13.15227
 31
0.0
  0
LINE
  5
365
100
AcDbEntity
  8
FULL
100
AcDbLine
 10
18.54465
 20
13.171127
 30
0.0
 11
17.255345
 21
13.15227
 31
0.0
  0
LINE
  5
366
100
AcDbEntity
  8
FULL
100
AcDbLine
 10
17.21988
 20
13.171127
 30
0.0
 11
18.510587
 21
13.192411
 31
0.0
  0
LINE
  5
367
100
AcDbEntity
  8
FULL
100
AcDbLine
 10
18.546052
 20
13.211268
 30
0.0
 11
17.253943
 21
13.192411
 31
0.0
  0
LINE
  5
368
100
AcDbEntity
  8
FULL
100
AcDbLine
 10
18.511989
 20
13.232553
 30
0.0
 11
17.218478
 21
13.211268
 31
0.0
  0
LINE
  5
369
100
AcDbEntity
  8
FULL
100
AcDbLine
 10
18.547454
 20
13.25141
 30
0.0
 11
17.252541
 21
13.232553
 31
0.0
  0
LINE
  5
36A
100
AcDbEntity
  8
FULL
100
AcDbLine
 10
17.217077
 20
13.25141
 30
0.0
 11
18.513391
 21
13.272695
 31
0.0
  0
LINE
  5
36B
100
AcDbEntity
  8
FULL
100
AcDbLine
 10
18.548856
 20
13.291552
 30
0.0
 11
17.25114
 21
13.272695
 31
0.0
  0
LINE
  5
36C
100
AcDbEntity
  8
FULL
100
AcDbLine
 10
17.215675
 20
13.291552
 30
0.0
 11
18.514793
 21
13.312837
 31
0.0
  0
LINE
  5
36D
100
AcDbEntity
  8
FULL
100
AcDbLine
 10
18.550257
 20
13.331694
 30
0.0
 11
17.249738
 21
13.312837
 31
0.0
  0
LINE
  5
36E
100
AcDbEntity
  8
FULL
100
AcDbLine
 10
17.214273
 20
13.331694
 30
0.0
 11
18.516195
 21
13.352979
 31
0.0
  0
LINE
  5
36F
100
AcDbEntity
  8
FULL
100
AcDbLine
 10
18.551659
 20
13.371835
 30
0.0
 11
17.248336
 21
13.352979
 31
0.0
  0
LINE
  5
370
100
AcDbEntity
  8
FULL
100
AcDbLine
 10
17.212871
 20
13.371835
 30
0.0
 11
18.517596
 21
13.39312
 31
0.0
  0
LINE
  5
371
100
AcDbEntity
  8
FULL
100
AcDbLine
 10
18.553061
 20
13.411977
 30
0.0
 11
17.246934
 21
13.39312
 31
0.0
  0
LINE
  5
372
100
AcDbEntity
  8
FULL
100
AcDbLine
 10
17.21147
 20
13.411977
 30
0.0
 11
18.518998
 21
13.433262
 31
0.0
  0
LINE
  5
373
100
AcDbEntity
  8
FULL
100
AcDbLine
 10
18.554463
 20
13.452119
 30
0.0
 11
17.245532
 21
13.433262
 31
0.0
  0
LINE
  5
374
100
AcDbEntity
  8
FULL
100
AcDbLine
 10
17.210068
 20
13.452119
 30
0.0
 11
18.5204
 21
13.473404
 31
0.0
  0
LINE
  5
375
100
AcDbEntity
  8
FULL
100
AcDbLine
 10
18.555865
 20
13.492261
 30
0.0
 11
17.244131
 21
13.473404
 31
0.0
  0
LINE
  5
376
100
AcDbEntity
  8
FULL
100
AcDbLine
 10
17.208666
 20
13.492261
 30
0.0
 11
18.521802
 21
13.513546
 31
0.0
  0
LINE
  5
377
100
AcDbEntity
  8
FULL
100
AcDbLine
 10
18.557266
 20
13.532403
 30
0.0
 11
17.242729
 21
13.513546
 31
0.0
  0
LINE
  5
378
100
AcDbEntity
  8
FULL
100
AcDbLine
 10
17.207264
 20
13.532403
 30
0.0
 11
18.523203
 21
13.553687
 31
0.0
  0
LINE
  5
379
100
AcDbEntity
  8
FULL
100
AcDbLine
 10
18.558668
 20
13.572544
 30
0.0
 11
17.241327
 21
13.553687
 31
0.0
  0
LINE
  5
37A
100
AcDbEntity
  8
FULL
100
AcDbLine
 10
18.524605
 20
13.593829
 30
0.0
 11
17.205862
 21
13.572544
 31
0.0
  0
LINE
  5
37B
100
AcDbEntity
  8
FULL
100
AcDbLine
 10
17.239925
 20
13.593829
 30
0.0
 11
18.56007
 21
13.612686
 31
0.0
  0
LINE
  5
37C
100
AcDbEntity
  8
FULL
100
AcDbLine
 10
18.526007
 20
13.633971
 30
0.0
 11
17.204461
 21
13.612686
 31
0.0
  0
LINE
  5
37D
100
AcDbEntity
  8
FULL
100
AcDbLine
 10
17.238524
 20
13.633971
 30
0.0
 11
18.561472
 21
13.652828
 31
0.0
  0
LINE
  5
37E
100
AcDbEntity
  8
FULL
100
AcDbLine
 10
18.527409
 20
13.674113
 30
0.0
 11
17.203059
 21
13.652828
 31
0.0
  0
LINE
  5
37F
100
AcDbEntity
  8
FULL
100
AcDbLine
 10
17.237122
 20
13.674113
 30
0.0
 11
18.562874
 21
13.69297
 31
0.0
  0
LINE
  5
380
100
AcDbEntity
  8
FULL
100
AcDbLine
 10
18.528811
 20
13.714255
 30
0.0
 11
17.201657
 21
13.69297
 31
0.0
  0
LINE
  5
381
100
AcDbEntity
  8
FULL
100
AcDbLine
 10
17.23572
 20
13.714255
 30
0.0
 11
18.564275
 21
13.733112
 31
0.0
  0
LINE
  5
382
100
AcDbEntity
  8
FULL
100
AcDbLine
 10
17.200255
 20
13.733112
 30
0.0
 11
18.555893
 21
13.738349
 31
0.0
  0
LINE
  5
383
100
AcDbEntity
  8
FULL
100
AcDbLine
 10
18.555893
 20
13.738349
 30
0.0
 11
17.208637
 21
13.738349
 31
0.0
  0
LINE
  5
390
100
AcDbEntity
  8
FULL
100
AcDbLine
 10
19.467265
 20
17.020344
 30
0.0
 11
19.467265
 21
15.200901
 31
0.0
  0
LINE
  5
391
100
AcDbEntity
  8
FULL
100
AcDbLine
 10
16.297265
 20
17.020344
 30
0.0
 11
16.297265
 21
15.200901
 31
0.0
  0
ARC
  5
392
100
AcDbEntity
  8
FULL
100
AcDbCircle
 10
22.092708
 20
17.406844
 30
0.0
 40
3.125
100
AcDbArc
 50
62.819827
 51
117.180173
  0
ARC
  5
393
100
AcDbEntity
  8
FULL
100
AcDbCircle
 10
23.387708
 20
19.928788
 30
0.0
 40
0.29
100
AcDbArc
 50
0.0
 51
62.819827
  0
ARC
  5
394
100
AcDbEntity
  8
FULL
100
AcDbCircle
 10
20.797708
 20
19.928788
 30
0.0
 40
0.29
100
AcDbArc
 50
117.180173
 51
180.0
  0
LINE
  5
395
100
AcDbEntity
  8
FULL
100
AcDbLine
 10
22.766336
 20
13.738349
 30
0.0
 11
21.41908
 21
13.738349
 31
0.0
  0
LINE
  5
396
100
AcDbEntity
  8
FULL
100
AcDbLine
 10
21.410698
 20
13.733112
 30
0.0
 11
22.766336
 21
13.738349
 31
0.0
  0
LINE
  5
397
100
AcDbEntity
  8
FULL
100
AcDbLine
 10
21.446163
 20
13.714255
 30
0.0
 11
22.774718
 21
13.733112
 31
0.0
  0
LINE
  5
398
100
AcDbEntity
  8
FULL
100
AcDbLine
 10
22.739254
 20
13.714255
 30
0.0
 11
21.4121
 21
13.69297
 31
0.0
  0
LINE
  5
399
100
AcDbEntity
  8
FULL
100
AcDbLine
 10
21.447565
 20
13.674113
 30
0.0
 11
22.773317
 21
13.69297
 31
0.0
  0
LINE
  5
39A
100
AcDbEntity
  8
FULL
100
AcDbLine
 10
22.737852
 20
13.674113
 30
0.0
 11
21.413502
 21
13.652828
 31
0.0
  0
LINE
  5
39B
100
AcDbEntity
  8
FULL
100
AcDbLine
 10
21.448967
 20
13.633971
 30
0.0
 11
22.771915
 21
13.652828
 31
0.0
  0
LINE
  5
39C
100
AcDbEntity
  8
FULL
100
AcDbLine
 10
22.73645
 20
13.633971
 30
0.0
 11
21.414904
 21
13.612686
 31
0.0
  0
LINE
  5
39D
100
AcDbEntity
  8
FULL
100
AcDbLine
 10
21.450368
 20
13.593829
 30
0.0
 11
22.770513
 21
13.612686
 31
0.0
  0
LINE
  5
39E
100
AcDbEntity
  8
FULL
100
AcDbLine
 10
22.735048
 20
13.593829
 30
0.0
 11
21.416306
 21
13.572544
 31
0.0
  0
LINE
  5
39F
100
AcDbEntity
  8
FULL
100
AcDbLine
 10
22.769111
 20
13.572544
 30
0.0
 11
21.45177
 21
13.553687
 31
0.0
  0
LINE
  5
3A0
100
AcDbEntity
  8
FULL
100
AcDbLine
 10
21.417707
 20
13.532403
 30
0.0
 11
22.733647
 21
13.553687
 31
0.0
  0
LINE
  5
3A1
100
AcDbEntity
  8
FULL
100
AcDbLine
 10
22.76771
 20
13.532403
 30
0.0
 11
21.453172
 21
13.513546
 31
0.0
  0
LINE
  5
3A2
100
AcDbEntity
  8
FULL
100
AcDbLine
 10
21.419109
 20
13.492261
 30
0.0
 11
22.732245
 21
13.513546
 31
0.0
  0
LINE
  5
3A3
100
AcDbEntity
  8
FULL
100
AcDbLine
 10
22.766308
 20
13.492261
 30
0.0
 11
21.454574
 21
13.473404
 31
0.0
  0
LINE
  5
3A4
100
AcDbEntity
  8
FULL
100
AcDbLine
 10
21.420511
 20
13.452119
 30
0.0
 11
22.730843
 21
13.473404
 31
0.0
  0
LINE
  5
3A5
100
AcDbEntity
  8
FULL
100
AcDbLine
 10
22.764906
 20
13.452119
 30
0.0
 11
21.455976
 21
13.433262
 31
0.0
  0
LINE
  5
3A6
100
AcDbEntity
  8
FULL
100
AcDbLine
 10
21.421913
 20
13.411977
 30
0.0
 11
22.729441
 21
13.433262
 31
0.0
  0
LINE
  5
3A7
100
AcDbEntity
  8
FULL
100
AcDbLine
 10
22.763504
 20
13.411977
 30
0.0
 11
21.457377
 21
13.39312
 31
0.0
  0
LINE
  5
3A8
100
AcDbEntity
  8
FULL
100
AcDbLine
 10
21.423314
 20
13.371835
 30
0.0
 11
22.728039
 21
13.39312
 31
0.0
  0
LINE
  5
3A9
100
AcDbEntity
  8
FULL
100
AcDbLine
 10
22.762102
 20
13.371835
 30
0.0
 11
21.458779
 21
13.352979
 31
0.0
  0
LINE
  5
3AA
100
AcDbEntity
  8
FULL
100
AcDbLine
 10
21.424716
 20
13.331694
 30
0.0
 11
22.726638
 21
13.352979
 31
0.0
  0
LINE
  5
3AB
100
AcDbEntity
  8
FULL
100
AcDbLine
 10
22.760701
 20
13.331694
 30
0.0
 11
21.460181
 21
13.312837
 31
0.0
  0
LINE
  5
3AC
100
AcDbEntity
  8
FULL
100
AcDbLine
 10
21.426118
 20
13.291552
 30
0.0
 11
22.725236
 21
13.312837
 31
0.0
  0
LINE
  5
3AD
100
AcDbEntity
  8
FULL
100
AcDbLine
 10
22.759299
 20
13.291552
 30
0.0
 11
21.461583
 21
13.272695
 31
0.0
  0
LINE
  5
3AE
100
AcDbEntity
  8
FULL
100
AcDbLine
 10
21.42752
 20
13.25141
 30
0.0
 11
22.723834
 21
13.272695
 31
0.0
  0
LINE
  5
3AF
100
AcDbEntity
  8
FULL
100
AcDbLine
 10
22.757897
 20
13.25141
 30
0.0
 11
21.462985
 21
13.232553
 31
0.0
  0
LINE
  5
3B0
100
AcDbEntity
  8
FULL
100
AcDbLine
 10
22.722432
 20
13.232553
 30
0.0
 11
21.428922
 21
13.211268
 31
0.0
  0
LINE
  5
3B1
100
AcDbEntity
  8
FULL
100
AcDbLine
 10
22.756495
 20
13.211268
 30
0.0
 11
21.464386
 21
13.192411
 31
0.0
  0
LINE
  5
3B2
100
AcDbEntity
  8
FULL
100
AcDbLine
 10
21.430323
 20
13.171127
 30
0.0
 11
22.721031
 21
13.192411
 31
0.0
  0
LINE
  5
3B3
100
AcDbEntity
  8
FULL
100
AcDbLine
 10
22.755093
 20
13.171127
 30
0.0
 11
21.465788
 21
13.15227
 31
0.0
  0
LINE
  5
3B4
100
AcDbEntity
  8
FULL
100
AcDbLine
 10
21.431725
 20
13.130985
 30
0.0
 11
22.719629
 21
13.15227
 31
0.0
  0
LINE
  5
3B5
100
AcDbEntity
  8
FULL
100
AcDbLine
 10
22.753692
 20
13.130985
 30
0.0
 11
21.46719
 21
13.112128
 31
0.0
  0
LINE
  5
3B6
100
AcDbEntity
  8
FULL
100
AcDbLine
 10
22.718227
 20
13.112128
 30
0.0
 11
21.433127
 21
13.090843
 31
0.0
  0
LINE
  5
3B7
100
AcDbEntity
  8
FULL
100
AcDbLine
 10
21.468592
 20
13.071986
 30
0.0
 11
22.75229
 21
13.090843
 31
0.0
  0
LINE
  5
3B8
100
AcDbEntity
  8
FULL
100
AcDbLine
 10
22.716825
 20
13.071986
 30
0.0
 11
21.434529
 21
13.050701
 31
0.0
  0
LINE
  5
3B9
100
AcDbEntity
  8
FULL
100
AcDbLine
 10
21.469993
 20
13.031844
 30
0.0
 11
22.750888
 21
13.050701
 31
0.0
  0
LINE
  5
3BA
100
AcDbEntity
  8
FULL
100
AcDbLine
 10
22.715423
 20
13.031844
 30
0.0
 11
22.750888
 21
13.050701
 31
0.0
  0
LINE
  5
3BB
100
AcDbEntity
  8
FULL
100
AcDbLine
 10
22.716825
 20
13.071986
 30
0.0
 11
22.750888
 21
13.050701
 31
0.0
  0
LINE
  5
3BC
100
AcDbEntity
  8
FULL
100
AcDbLine
 10
22.716825
 20
13.071986
 30
0.0
 11
22.75229
 21
13.090843
 31
0.0
  0
LINE
  5
3BD
100
AcDbEntity
  8
FULL
100
AcDbLine
 10
22.718227
 20
13.112128
 30
0.0
 11
22.75229
 21
13.090843
 31
0.0
  0
LINE
  5
3BE
100
AcDbEntity
  8
FULL
100
AcDbLine
 10
22.719629
 20
13.15227
 30
0.0
 11
22.753692
 21
13.130985
 31
0.0
  0
LINE
  5
3BF
100
AcDbEntity
  8
FULL
100
AcDbLine
 10
22.718227
 20
13.112128
 30
0.0
 11
22.753692
 21
13.130985
 31
0.0
  0
LINE
  5
3C0
100
AcDbEntity
  8
FULL
100
AcDbLine
 10
22.721031
 20
13.192411
 30
0.0
 11
22.755093
 21
13.171127
 31
0.0
  0
LINE
  5
3C1
100
AcDbEntity
  8
FULL
100
AcDbLine
 10
22.719629
 20
13.15227
 30
0.0
 11
22.755093
 21
13.171127
 31
0.0
  0
LINE
  5
3C2
100
AcDbEntity
  8
FULL
100
AcDbLine
 10
22.723834
 20
13.272695
 30
0.0
 11
22.759299
 21
13.291552
 31
0.0
  0
LINE
  5
3C3
100
AcDbEntity
  8
FULL
100
AcDbLine
 10
22.725236
 20
13.312837
 30
0.0
 11
22.759299
 21
13.291552
 31
0.0
  0
LINE
  5
3C4
100
AcDbEntity
  8
FULL
100
AcDbLine
 10
22.725236
 20
13.312837
 30
0.0
 11
22.760701
 21
13.331694
 31
0.0
  0
LINE
  5
3C5
100
AcDbEntity
  8
FULL
100
AcDbLine
 10
22.726638
 20
13.352979
 30
0.0
 11
22.760701
 21
13.331694
 31
0.0
  0
LINE
  5
3C6
100
AcDbEntity
  8
FULL
100
AcDbLine
 10
22.723834
 20
13.272695
 30
0.0
 11
22.757897
 21
13.25141
 31
0.0
  0
LINE
  5
3C7
100
AcDbEntity
  8
FULL
100
AcDbLine
 10
22.722432
 20
13.232553
 30
0.0
 11
22.757897
 21
13.25141
 31
0.0
  0
LINE
  5
3C8
100
AcDbEntity
  8
FULL
100
AcDbLine
 10
22.722432
 20
13.232553
 30
0.0
 11
22.756495
 21
13.211268
 31
0.0
  0
LINE
  5
3C9
100
AcDbEntity
  8
FULL
100
AcDbLine
 10
22.721031
 20
13.192411
 30
0.0
 11
22.756495
 21
13.211268
 31
0.0
  0
LINE
  5
3CA
100
AcDbEntity
  8
FULL
100
AcDbLine
 10
22.732245
 20
13.513546
 30
0.0
 11
22.76771
 21
13.532403
 31
0.0
  0
LINE
  5
3CB
100
AcDbEntity
  8
FULL
100
AcDbLine
 10
22.733647
 20
13.553687
 30
0.0
 11
22.76771
 21
13.532403
 31
0.0
  0
LINE
  5
3CC
100
AcDbEntity
  8
FULL
100
AcDbLine
 10
22.733647
 20
13.553687
 30
0.0
 11
22.769111
 21
13.572544
 31
0.0
  0
LINE
  5
3CD
100
AcDbEntity
  8
FULL
100
AcDbLine
 10
22.735048
 20
13.593829
 30
0.0
 11
22.769111
 21
13.572544
 31
0.0
  0
LINE
  5
3CE
100
AcDbEntity
  8
FULL
100
AcDbLine
 10
22.737852
 20
13.674113
 30
0.0
 11
22.771915
 21
13.652828
 31
0.0
  0
LINE
  5
3CF
100
AcDbEntity
  8
FULL
100
AcDbLine
 10
22.73645
 20
13.633971
 30
0.0
 11
22.771915
 21
13.652828
 31
0.0
  0
LINE
  5
3D0
100
AcDbEntity
  8
FULL
100
AcDbLine
 10
22.73645
 20
13.633971
 30
0.0
 11
22.770513
 21
13.612686
 31
0.0
  0
LINE
  5
3D1
100
AcDbEntity
  8
FULL
100
AcDbLine
 10
22.735048
 20
13.593829
 30
0.0
 11
22.770513
 21
13.612686
 31
0.0
  0
LINE
  5
3D2
100
AcDbEntity
  8
FULL
100
AcDbLine
 10
22.729441
 20
13.433262
 30
0.0
 11
22.764906
 21
13.452119
 31
0.0
  0
LINE
  5
3D3
100
AcDbEntity
  8
FULL
100
AcDbLine
 10
22.730843
 20
13.473404
 30
0.0
 11
22.764906
 21
13.452119
 31
0.0
  0
LINE
  5
3D4
100
AcDbEntity
  8
FULL
100
AcDbLine
 10
22.730843
 20
13.473404
 30
0.0
 11
22.766308
 21
13.492261
 31
0.0
  0
LINE
  5
3D5
100
AcDbEntity
  8
FULL
100
AcDbLine
 10
22.732245
 20
13.513546
 30
0.0
 11
22.766308
 21
13.492261
 31
0.0
  0
LINE
  5
3D6
100
AcDbEntity
  8
FULL
100
AcDbLine
 10
22.729441
 20
13.433262
 30
0.0
 11
22.763504
 21
13.411977
 31
0.0
  0
LINE
  5
3D7
100
AcDbEntity
  8
FULL
100
AcDbLine
 10
22.728039
 20
13.39312
 30
0.0
 11
22.763504
 21
13.411977
 31
0.0
  0
LINE
  5
3D8
100
AcDbEntity
  8
FULL
100
AcDbLine
 10
22.728039
 20
13.39312
 30
0.0
 11
22.762102
 21
13.371835
 31
0.0
  0
LINE
  5
3D9
100
AcDbEntity
  8
FULL
100
AcDbLine
 10
22.726638
 20
13.352979
 30
0.0
 11
22.762102
 21
13.371835
 31
0.0
  0
LINE
  5
3DA
100
AcDbEntity
  8
FULL
100
AcDbLine
 10
22.766336
 20
13.738349
 30
0.0
 11
22.774718
 21
13.733112
 31
0.0
  0
LINE
  5
3DB
100
AcDbEntity
  8
FULL
100
AcDbLine
 10
22.739254
 20
13.714255
 30
0.0
 11
22.774718
 21
13.733112
 31
0.0
  0
LINE
  5
3DC
100
AcDbEntity
  8
FULL
100
AcDbLine
 10
22.739254
 20
13.714255
 30
0.0
 11
22.773317
 21
13.69297
 31
0.0
  0
LINE
  5
3DD
100
AcDbEntity
  8
FULL
100
AcDbLine
 10
22.737852
 20
13.674113
 30
0.0
 11
22.773317
 21
13.69297
 31
0.0
  0
LINE
  5
3DE
100
AcDbEntity
  8
FULL
100
AcDbLine
 10
22.766336
 20
13.738349
 30
0.0
 11
22.792815
 21
14.496591
 31
0.0
  0
ARC
  5
3DF
100
AcDbEntity
  8
FULL
100
AcDbCircle
 10
23.037666
 20
14.48804
 30
0.0
 40
0.245
100
AcDbArc
 50
106.284242
 51
178.0
  0
ARC
  5
3E0
100
AcDbEntity
  8
FULL
100
AcDbCircle
 10
21.147751
 20
14.48804
 30
0.0
 40
0.245
100
AcDbArc
 50
2.0
 51
73.715758
  0
ARC
  5
3E1
100
AcDbEntity
  8
FULL
100
AcDbCircle
 10
22.092708
 20
17.722844
 30
0.0
 40
3.125
100
AcDbArc
 50
253.715758
 51
297.180173
  0
LINE
  5
3E2
100
AcDbEntity
  8
FULL
100
AcDbLine
 10
21.41908
 20
13.738349
 30
0.0
 11
21.392602
 21
14.496591
 31
0.0
  0
LINE
  5
3E3
100
AcDbEntity
  8
FULL
100
AcDbLine
 10
21.447565
 20
13.674113
 30
0.0
 11
21.4121
 21
13.69297
 31
0.0
  0
LINE
  5
3E4
100
AcDbEntity
  8
FULL
100
AcDbLine
 10
21.446163
 20
13.714255
 30
0.0
 11
21.4121
 21
13.69297
 31
0.0
  0
LINE
  5
3E5
100
AcDbEntity
  8
FULL
100
AcDbLine
 10
21.446163
 20
13.714255
 30
0.0
 11
21.410698
 21
13.733112
 31
0.0
  0
LINE
  5
3E6
100
AcDbEntity
  8
FULL
100
AcDbLine
 10
21.41908
 20
13.738349
 30
0.0
 11
21.410698
 21
13.733112
 31
0.0
  0
LINE
  5
3E7
100
AcDbEntity
  8
FULL
100
AcDbLine
 10
21.458779
 20
13.352979
 30
0.0
 11
21.423314
 21
13.371835
 31
0.0
  0
LINE
  5
3E8
100
AcDbEntity
  8
FULL
100
AcDbLine
 10
21.457377
 20
13.39312
 30
0.0
 11
21.423314
 21
13.371835
 31
0.0
  0
LINE
  5
3E9
100
AcDbEntity
  8
FULL
100
AcDbLine
 10
21.457377
 20
13.39312
 30
0.0
 11
21.421913
 21
13.411977
 31
0.0
  0
LINE
  5
3EA
100
AcDbEntity
  8
FULL
100
AcDbLine
 10
21.455976
 20
13.433262
 30
0.0
 11
21.421913
 21
13.411977
 31
0.0
  0
LINE
  5
3EB
100
AcDbEntity
  8
FULL
100
AcDbLine
 10
21.453172
 20
13.513546
 30
0.0
 11
21.419109
 21
13.492261
 31
0.0
  0
LINE
  5
3EC
100
AcDbEntity
  8
FULL
100
AcDbLine
 10
21.454574
 20
13.473404
 30
0.0
 11
21.419109
 21
13.492261
 31
0.0
  0
LINE
  5
3ED
100
AcDbEntity
  8
FULL
100
AcDbLine
 10
21.454574
 20
13.473404
 30
0.0
 11
21.420511
 21
13.452119
 31
0.0
  0
LINE
  5
3EE
100
AcDbEntity
  8
FULL
100
AcDbLine
 10
21.455976
 20
13.433262
 30
0.0
 11
21.420511
 21
13.452119
 31
0.0
  0
LINE
  5
3EF
100
AcDbEntity
  8
FULL
100
AcDbLine
 10
21.450368
 20
13.593829
 30
0.0
 11
21.414904
 21
13.612686
 31
0.0
  0
LINE
  5
3F0
100
AcDbEntity
  8
FULL
100
AcDbLine
 10
21.448967
 20
13.633971
 30
0.0
 11
21.414904
 21
13.612686
 31
0.0
  0
LINE
  5
3F1
100
AcDbEntity
  8
FULL
100
AcDbLine
 10
21.448967
 20
13.633971
 30
0.0
 11
21.413502
 21
13.652828
 31
0.0
  0
LINE
  5
3F2
100
AcDbEntity
  8
FULL
100
AcDbLine
 10
21.447565
 20
13.674113
 30
0.0
 11
21.413502
 21
13.652828
 31
0.0
  0
LINE
  5
3F3
100
AcDbEntity
  8
FULL
100
AcDbLine
 10
21.450368
 20
13.593829
 30
0.0
 11
21.416306
 21
13.572544
 31
0.0
  0
LINE
  5
3F4
100
AcDbEntity
  8
FULL
100
AcDbLine
 10
21.45177
 20
13.553687
 30
0.0
 11
21.416306
 21
13.572544
 31
0.0
  0
LINE
  5
3F5
100
AcDbEntity
  8
FULL
100
AcDbLine
 10
21.45177
 20
13.553687
 30
0.0
 11
21.417707
 21
13.532403
 31
0.0
  0
LINE
  5
3F6
100
AcDbEntity
  8
FULL
100
AcDbLine
 10
21.453172
 20
13.513546
 30
0.0
 11
21.417707
 21
13.532403
 31
0.0
  0
LINE
  5
3F7
100
AcDbEntity
  8
FULL
100
AcDbLine
 10
21.464386
 20
13.192411
 30
0.0
 11
21.428922
 21
13.211268
 31
0.0
  0
LINE
  5
3F8
100
AcDbEntity
  8
FULL
100
AcDbLine
 10
21.462985
 20
13.232553
 30
0.0
 11
21.428922
 21
13.211268
 31
0.0
  0
LINE
  5
3F9
100
AcDbEntity
  8
FULL
100
AcDbLine
 10
21.462985
 20
13.232553
 30
0.0
 11
21.42752
 21
13.25141
 31
0.0
  0
LINE
  5
3FA
100
AcDbEntity
  8
FULL
100
AcDbLine
 10
21.461583
 20
13.272695
 30
0.0
 11
21.42752
 21
13.25141
 31
0.0
  0
LINE
  5
3FB
100
AcDbEntity
  8
FULL
100
AcDbLine
 10
21.458779
 20
13.352979
 30
0.0
 11
21.424716
 21
13.331694
 31
0.0
  0
LINE
  5
3FC
100
AcDbEntity
  8
FULL
100
AcDbLine
 10
21.460181
 20
13.312837
 30
0.0
 11
21.424716
 21
13.331694
 31
0.0
  0
LINE
  5
3FD
100
AcDbEntity
  8
FULL
100
AcDbLine
 10
21.460181
 20
13.312837
 30
0.0
 11
21.426118
 21
13.291552
 31
0.0
  0
LINE
  5
3FE
100
AcDbEntity
  8
FULL
100
AcDbLine
 10
21.461583
 20
13.272695
 30
0.0
 11
21.426118
 21
13.291552
 31
0.0
  0
LINE
  5
3FF
100
AcDbEntity
  8
FULL
100
AcDbLine
 10
21.46719
 20
13.112128
 30
0.0
 11
21.431725
 21
13.130985
 31
0.0
  0
LINE
  5
400
100
AcDbEntity
  8
FULL
100
AcDbLine
 10
21.465788
 20
13.15227
 30
0.0
 11
21.431725
 21
13.130985
 31
0.0
  0
LINE
  5
401
100
AcDbEntity
  8
FULL
100
AcDbLine
 10
21.465788
 20
13.15227
 30
0.0
 11
21.430323
 21
13.171127
 31
0.0
  0
LINE
  5
402
100
AcDbEntity
  8
FULL
100
AcDbLine
 10
21.464386
 20
13.192411
 30
0.0
 11
21.430323
 21
13.171127
 31
0.0
  0
LINE
  5
403
100
AcDbEntity
  8
FULL
100
AcDbLine
 10
21.46719
 20
13.112128
 30
0.0
 11
21.433127
 21
13.090843
 31
0.0
  0
LINE
  5
404
100
AcDbEntity
  8
FULL
100
AcDbLine
 10
21.468592
 20
13.071986
 30
0.0
 11
21.433127
 21
13.090843
 31
0.0
  0
LINE
  5
405
100
AcDbEntity
  8
FULL
100
AcDbLine
 10
21.468592
 20
13.071986
 30
0.0
 11
21.434529
 21
13.050701
 31
0.0
  0
LINE
  5
406
100
AcDbEntity
  8
FULL
100
AcDbLine
 10
21.469993
 20
13.031844
 30
0.0
 11
21.434529
 21
13.050701
 31
0.0
  0
ARC
  5
407
100
AcDbEntity
  8
FULL
100
AcDbCircle
 10
20.797708
 20
15.200901
 30
0.0
 40
0.29
100
AcDbArc
 50
180.0
 51
242.819827
  0
ARC
  5
408
100
AcDbEntity
  8
FULL
100
AcDbCircle
 10
22.092708
 20
17.722844
 30
0.0
 40
3.125
100
AcDbArc
 50
242.819827
 51
253.715758
  0
LINE
  5
409
100
AcDbEntity
  8
FULL
100
AcDbLine
 10
21.469993
 20
13.031844
 30
0.0
 11
22.715423
 21
13.031844
 31
0.0
  0
LINE
  5
40A
100
AcDbEntity
  8
FULL
100
AcDbLine
 10
20.507708
 20
19.928788
 30
0.0
 11
20.507708
 21
17.671844
 31
0.0
  0
LINE
  5
40B
100
AcDbEntity
  8
FULL
100
AcDbLine
 10
23.677708
 20
19.928788
 30
0.0
 11
23.677708
 21
17.671844
 31
0.0
  0
LINE
  5
418
100
AcDbEntity
  8
FULL
100
AcDbLine
 10
20.507708
 20
17.457844
 30
0.0
 11
20.507708
 21
15.200901
 31
0.0
  0
LINE
  5
419
100
AcDbEntity
  8
FULL
100
AcDbLine
 10
23.677708
 20
17.457844
 30
0.0
 11
23.677708
 21
15.200901
 31
0.0
  0
ARC
  5
41A
100
AcDbEntity
  8
OBJECTS
100
AcDbCircle
 10
25.202124
 20
20.928788
 30
0.0
 40
0.29
100
AcDbArc
 50
117.180173
 51
180.0
  0
ARC
  5
41B
100
AcDbEntity
  8
OBJECTS
100
AcDbCircle
 10
27.792124
 20
20.928788
 30
0.0
 40
0.29
100
AcDbArc
 50
0.0
 51
62.819827
  0
ARC
  5
41C
100
AcDbEntity
  8
OBJECTS
100
AcDbCircle
 10
26.497124
 20
18.406844
 30
0.0
 40
3.125
100
AcDbArc
 50
62.819827
 51
117.180173
  0
LINE
  5
41D
100
AcDbEntity
  8
OBJECTS
100
AcDbLine
 10
24.912124
 20
20.928788
 30
0.0
 11
24.912124
 21
18.192344
 31
0.0
  0
LINE
  5
41E
100
AcDbEntity
  8
OBJECTS
100
AcDbLine
 10
28.082124
 20
20.928788
 30
0.0
 11
28.082124
 21
18.192344
 31
0.0
  0
ARC
  5
41F
100
AcDbEntity
  8
FULL
100
AcDbCircle
 10
23.387708
 20
15.200901
 30
0.0
 40
0.29
100
AcDbArc
 50
297.180173
 51
0.0
  0
ARC
  5
420
100
AcDbEntity
  8
OBJECTS
100
AcDbCircle
 10
27.792124
 20
15.200901
 30
0.0
 40
0.29
100
AcDbArc
 50
297.180173
 51
0.0
  0
LINE
  5
421
100
AcDbEntity
  8
OBJECTS
100
AcDbLine
 10
25.874409
 20
13.031844
 30
0.0
 11
27.119839
 21
13.031844
 31
0.0
  0
ARC
  5
422
100
AcDbEntity
  8
OBJECTS
100
AcDbCircle
 10
26.497124
 20
17.722844
 30
0.0
 40
3.125
100
AcDbArc
 50
242.819827
 51
253.715758
  0
ARC
  5
423
100
AcDbEntity
  8
OBJECTS
100
AcDbCircle
 10
25.202124
 20
15.200901
 30
0.0
 40
0.29
100
AcDbArc
 50
180.0
 51
242.819827
  0
LINE
  5
424
100
AcDbEntity
  8
OBJECTS
100
AcDbLine
 10
25.874409
 20
13.031844
 30
0.0
 11
25.838945
 21
13.050701
 31
0.0
  0
LINE
  5
425
100
AcDbEntity
  8
OBJECTS
100
AcDbLine
 10
25.873008
 20
13.071986
 30
0.0
 11
25.838945
 21
13.050701
 31
0.0
  0
LINE
  5
426
100
AcDbEntity
  8
OBJECTS
100
AcDbLine
 10
25.873008
 20
13.071986
 30
0.0
 11
25.837543
 21
13.090843
 31
0.0
  0
LINE
  5
427
100
AcDbEntity
  8
OBJECTS
100
AcDbLine
 10
25.871606
 20
13.112128
 30
0.0
 11
25.837543
 21
13.090843
 31
0.0
  0
LINE
  5
428
100
AcDbEntity
  8
OBJECTS
100
AcDbLine
 10
25.868802
 20
13.192411
 30
0.0
 11
25.834739
 21
13.171127
 31
0.0
  0
LINE
  5
429
100
AcDbEntity
  8
OBJECTS
100
AcDbLine
 10
25.870204
 20
13.15227
 30
0.0
 11
25.834739
 21
13.171127
 31
0.0
  0
LINE
  5
42A
100
AcDbEntity
  8
OBJECTS
100
AcDbLine
 10
25.870204
 20
13.15227
 30
0.0
 11
25.836141
 21
13.130985
 31
0.0
  0
LINE
  5
42B
100
AcDbEntity
  8
OBJECTS
100
AcDbLine
 10
25.871606
 20
13.112128
 30
0.0
 11
25.836141
 21
13.130985
 31
0.0
  0
LINE
  5
42C
100
AcDbEntity
  8
OBJECTS
100
AcDbLine
 10
25.865999
 20
13.272695
 30
0.0
 11
25.830534
 21
13.291552
 31
0.0
  0
LINE
  5
42D
100
AcDbEntity
  8
OBJECTS
100
AcDbLine
 10
25.864597
 20
13.312837
 30
0.0
 11
25.830534
 21
13.291552
 31
0.0
  0
LINE
  5
42E
100
AcDbEntity
  8
OBJECTS
100
AcDbLine
 10
25.864597
 20
13.312837
 30
0.0
 11
25.829132
 21
13.331694
 31
0.0
  0
LINE
  5
42F
100
AcDbEntity
  8
OBJECTS
100
AcDbLine
 10
25.863195
 20
13.352979
 30
0.0
 11
25.829132
 21
13.331694
 31
0.0
  0
LINE
  5
430
100
AcDbEntity
  8
OBJECTS
100
AcDbLine
 10
25.865999
 20
13.272695
 30
0.0
 11
25.831936
 21
13.25141
 31
0.0
  0
LINE
  5
431
100
AcDbEntity
  8
OBJECTS
100
AcDbLine
 10
25.8674
 20
13.232553
 30
0.0
 11
25.831936
 21
13.25141
 31
0.0
  0
LINE
  5
432
100
AcDbEntity
  8
OBJECTS
100
AcDbLine
 10
25.8674
 20
13.232553
 30
0.0
 11
25.833337
 21
13.211268
 31
0.0
  0
LINE
  5
433
100
AcDbEntity
  8
OBJECTS
100
AcDbLine
 10
25.868802
 20
13.192411
 30
0.0
 11
25.833337
 21
13.211268
 31
0.0
  0
LINE
  5
434
100
AcDbEntity
  8
OBJECTS
100
AcDbLine
 10
25.857588
 20
13.513546
 30
0.0
 11
25.822123
 21
13.532403
 31
0.0
  0
LINE
  5
435
100
AcDbEntity
  8
OBJECTS
100
AcDbLine
 10
25.856186
 20
13.553687
 30
0.0
 11
25.822123
 21
13.532403
 31
0.0
  0
LINE
  5
436
100
AcDbEntity
  8
OBJECTS
100
AcDbLine
 10
25.856186
 20
13.553687
 30
0.0
 11
25.820721
 21
13.572544
 31
0.0
  0
LINE
  5
437
100
AcDbEntity
  8
OBJECTS
100
AcDbLine
 10
25.854784
 20
13.593829
 30
0.0
 11
25.820721
 21
13.572544
 31
0.0
  0
LINE
  5
438
100
AcDbEntity
  8
OBJECTS
100
AcDbLine
 10
25.851981
 20
13.674113
 30
0.0
 11
25.817918
 21
13.652828
 31
0.0
  0
LINE
  5
439
100
AcDbEntity
  8
OBJECTS
100
AcDbLine
 10
25.853383
 20
13.633971
 30
0.0
 11
25.817918
 21
13.652828
 31
0.0
  0
LINE
  5
43A
100
AcDbEntity
  8
OBJECTS
100
AcDbLine
 10
25.853383
 20
13.633971
 30
0.0
 11
25.81932
 21
13.612686
 31
0.0
  0
LINE
  5
43B
100
AcDbEntity
  8
OBJECTS
100
AcDbLine
 10
25.854784
 20
13.593829
 30
0.0
 11
25.81932
 21
13.612686
 31
0.0
  0
LINE
  5
43C
100
AcDbEntity
  8
OBJECTS
100
AcDbLine
 10
25.860392
 20
13.433262
 30
0.0
 11
25.824927
 21
13.452119
 31
0.0
  0
LINE
  5
43D
100
AcDbEntity
  8
OBJECTS
100
AcDbLine
 10
25.85899
 20
13.473404
 30
0.0
 11
25.824927
 21
13.452119
 31
0.0
  0
LINE
  5
43E
100
AcDbEntity
  8
OBJECTS
100
AcDbLine
 10
25.85899
 20
13.473404
 30
0.0
 11
25.823525
 21
13.492261
 31
0.0
  0
LINE
  5
43F
100
AcDbEntity
  8
OBJECTS
100
AcDbLine
 10
25.857588
 20
13.513546
 30
0.0
 11
25.823525
 21
13.492261
 31
0.0
  0
LINE
  5
440
100
AcDbEntity
  8
OBJECTS
100
AcDbLine
 10
25.860392
 20
13.433262
 30
0.0
 11
25.826329
 21
13.411977
 31
0.0
  0
LINE
  5
441
100
AcDbEntity
  8
OBJECTS
100
AcDbLine
 10
25.861793
 20
13.39312
 30
0.0
 11
25.826329
 21
13.411977
 31
0.0
  0
LINE
  5
442
100
AcDbEntity
  8
OBJECTS
100
AcDbLine
 10
25.861793
 20
13.39312
 30
0.0
 11
25.82773
 21
13.371835
 31
0.0
  0
LINE
  5
443
100
AcDbEntity
  8
OBJECTS
100
AcDbLine
 10
25.863195
 20
13.352979
 30
0.0
 11
25.82773
 21
13.371835
 31
0.0
  0
LINE
  5
444
100
AcDbEntity
  8
OBJECTS
100
AcDbLine
 10
25.823496
 20
13.738349
 30
0.0
 11
25.815114
 21
13.733112
 31
0.0
  0
LINE
  5
445
100
AcDbEntity
  8
OBJECTS
100
AcDbLine
 10
25.850579
 20
13.714255
 30
0.0
 11
25.815114
 21
13.733112
 31
0.0
  0
LINE
  5
446
100
AcDbEntity
  8
OBJECTS
100
AcDbLine
 10
25.850579
 20
13.714255
 30
0.0
 11
25.816516
 21
13.69297
 31
0.0
  0
LINE
  5
447
100
AcDbEntity
  8
OBJECTS
100
AcDbLine
 10
25.851981
 20
13.674113
 30
0.0
 11
25.816516
 21
13.69297
 31
0.0
  0
LINE
  5
448
100
AcDbEntity
  8
OBJECTS
100
AcDbLine
 10
25.823496
 20
13.738349
 30
0.0
 11
25.797018
 21
14.496591
 31
0.0
  0
ARC
  5
449
100
AcDbEntity
  8
OBJECTS
100
AcDbCircle
 10
26.497124
 20
17.722844
 30
0.0
 40
3.125
100
AcDbArc
 50
253.715758
 51
297.180173
  0
ARC
  5
44A
100
AcDbEntity
  8
OBJECTS
100
AcDbCircle
 10
25.552167
 20
14.48804
 30
0.0
 40
0.245
100
AcDbArc
 50
2.0
 51
73.715758
  0
ARC
  5
44B
100
AcDbEntity
  8
OBJECTS
100
AcDbCircle
 10
27.442082
 20
14.48804
 30
0.0
 40
0.245
100
AcDbArc
 50
106.284242
 51
178.0
  0
LINE
  5
44C
100
AcDbEntity
  8
OBJECTS
100
AcDbLine
 10
27.170752
 20
13.738349
 30
0.0
 11
27.197231
 21
14.496591
 31
0.0
  0
LINE
  5
44D
100
AcDbEntity
  8
OBJECTS
100
AcDbLine
 10
27.142268
 20
13.674113
 30
0.0
 11
27.177733
 21
13.69297
 31
0.0
  0
LINE
  5
44E
100
AcDbEntity
  8
OBJECTS
100
AcDbLine
 10
27.14367
 20
13.714255
 30
0.0
 11
27.177733
 21
13.69297
 31
0.0
  0
LINE
  5
44F
100
AcDbEntity
  8
OBJECTS
100
AcDbLine
 10
27.14367
 20
13.714255
 30
0.0
 11
27.179134
 21
13.733112
 31
0.0
  0
LINE
  5
450
100
AcDbEntity
  8
OBJECTS
100
AcDbLine
 10
27.170752
 20
13.738349
 30
0.0
 11
27.179134
 21
13.733112
 31
0.0
  0
LINE
  5
451
100
AcDbEntity
  8
OBJECTS
100
AcDbLine
 10
27.131054
 20
13.352979
 30
0.0
 11
27.166518
 21
13.371835
 31
0.0
  0
LINE
  5
452
100
AcDbEntity
  8
OBJECTS
100
AcDbLine
 10
27.132455
 20
13.39312
 30
0.0
 11
27.166518
 21
13.371835
 31
0.0
  0
LINE
  5
453
100
AcDbEntity
  8
OBJECTS
100
AcDbLine
 10
27.132455
 20
13.39312
 30
0.0
 11
27.16792
 21
13.411977
 31
0.0
  0
LINE
  5
454
100
AcDbEntity
  8
OBJECTS
100
AcDbLine
 10
27.133857
 20
13.433262
 30
0.0
 11
27.16792
 21
13.411977
 31
0.0
  0
LINE
  5
455
100
AcDbEntity
  8
OBJECTS
100
AcDbLine
 10
27.136661
 20
13.513546
 30
0.0
 11
27.170724
 21
13.492261
 31
0.0
  0
LINE
  5
456
100
AcDbEntity
  8
OBJECTS
100
AcDbLine
 10
27.135259
 20
13.473404
 30
0.0
 11
27.170724
 21
13.492261
 31
0.0
  0
LINE
  5
457
100
AcDbEntity
  8
OBJECTS
100
AcDbLine
 10
27.135259
 20
13.473404
 30
0.0
 11
27.169322
 21
13.452119
 31
0.0
  0
LINE
  5
458
100
AcDbEntity
  8
OBJECTS
100
AcDbLine
 10
27.133857
 20
13.433262
 30
0.0
 11
27.169322
 21
13.452119
 31
0.0
  0
LINE
  5
459
100
AcDbEntity
  8
OBJECTS
100
AcDbLine
 10
27.139464
 20
13.593829
 30
0.0
 11
27.174929
 21
13.612686
 31
0.0
  0
LINE
  5
45A
100
AcDbEntity
  8
OBJECTS
100
AcDbLine
 10
27.140866
 20
13.633971
 30
0.0
 11
27.174929
 21
13.612686
 31
0.0
  0
LINE
  5
45B
100
AcDbEntity
  8
OBJECTS
100
AcDbLine
 10
27.140866
 20
13.633971
 30
0.0
 11
27.176331
 21
13.652828
 31
0.0
  0
LINE
  5
45C
100
AcDbEntity
  8
OBJECTS
100
AcDbLine
 10
27.142268
 20
13.674113
 30
0.0
 11
27.176331
 21
13.652828
 31
0.0
  0
LINE
  5
45D
100
AcDbEntity
  8
OBJECTS
100
AcDbLine
 10
27.139464
 20
13.593829
 30
0.0
 11
27.173527
 21
13.572544
 31
0.0
  0
LINE
  5
45E
100
AcDbEntity
  8
OBJECTS
100
AcDbLine
 10
27.138062
 20
13.553687
 30
0.0
 11
27.173527
 21
13.572544
 31
0.0
  0
LINE
  5
45F
100
AcDbEntity
  8
OBJECTS
100
AcDbLine
 10
27.138062
 20
13.553687
 30
0.0
 11
27.172125
 21
13.532403
 31
0.0
  0
LINE
  5
460
100
AcDbEntity
  8
OBJECTS
100
AcDbLine
 10
27.136661
 20
13.513546
 30
0.0
 11
27.172125
 21
13.532403
 31
0.0
  0
LINE
  5
461
100
AcDbEntity
  8
OBJECTS
100
AcDbLine
 10
27.125446
 20
13.192411
 30
0.0
 11
27.160911
 21
13.211268
 31
0.0
  0
LINE
  5
462
100
AcDbEntity
  8
OBJECTS
100
AcDbLine
 10
27.126848
 20
13.232553
 30
0.0
 11
27.160911
 21
13.211268
 31
0.0
  0
LINE
  5
463
100
AcDbEntity
  8
OBJECTS
100
AcDbLine
 10
27.126848
 20
13.232553
 30
0.0
 11
27.162313
 21
13.25141
 31
0.0
  0
LINE
  5
464
100
AcDbEntity
  8
OBJECTS
100
AcDbLine
 10
27.12825
 20
13.272695
 30
0.0
 11
27.162313
 21
13.25141
 31
0.0
  0
LINE
  5
465
100
AcDbEntity
  8
OBJECTS
100
AcDbLine
 10
27.131054
 20
13.352979
 30
0.0
 11
27.165117
 21
13.331694
 31
0.0
  0
LINE
  5
466
100
AcDbEntity
  8
OBJECTS
100
AcDbLine
 10
27.129652
 20
13.312837
 30
0.0
 11
27.165117
 21
13.331694
 31
0.0
  0
LINE
  5
467
100
AcDbEntity
  8
OBJECTS
100
AcDbLine
 10
27.129652
 20
13.312837
 30
0.0
 11
27.163715
 21
13.291552
 31
0.0
  0
LINE
  5
468
100
AcDbEntity
  8
OBJECTS
100
AcDbLine
 10
27.12825
 20
13.272695
 30
0.0
 11
27.163715
 21
13.291552
 31
0.0
  0
LINE
  5
469
100
AcDbEntity
  8
OBJECTS
100
AcDbLine
 10
27.124045
 20
13.15227
 30
0.0
 11
27.159509
 21
13.171127
 31
0.0
  0
LINE
  5
46A
100
AcDbEntity
  8
OBJECTS
100
AcDbLine
 10
27.125446
 20
13.192411
 30
0.0
 11
27.159509
 21
13.171127
 31
0.0
  0
LINE
  5
46B
100
AcDbEntity
  8
OBJECTS
100
AcDbLine
 10
27.122643
 20
13.112128
 30
0.0
 11
27.158108
 21
13.130985
 31
0.0
  0
LINE
  5
46C
100
AcDbEntity
  8
OBJECTS
100
AcDbLine
 10
27.124045
 20
13.15227
 30
0.0
 11
27.158108
 21
13.130985
 31
0.0
  0
LINE
  5
46D
100
AcDbEntity
  8
OBJECTS
100
AcDbLine
 10
27.122643
 20
13.112128
 30
0.0
 11
27.156706
 21
13.090843
 31
0.0
  0
LINE
  5
46E
100
AcDbEntity
  8
OBJECTS
100
AcDbLine
 10
27.121241
 20
13.071986
 30
0.0
 11
27.156706
 21
13.090843
 31
0.0
  0
LINE
  5
46F
100
AcDbEntity
  8
OBJECTS
100
AcDbLine
 10
27.121241
 20
13.071986
 30
0.0
 11
27.155304
 21
13.050701
 31
0.0
  0
LINE
  5
470
100
AcDbEntity
  8
OBJECTS
100
AcDbLine
 10
27.119839
 20
13.031844
 30
0.0
 11
27.155304
 21
13.050701
 31
0.0
  0
LINE
  5
471
100
AcDbEntity
  8
OBJECTS
100
AcDbLine
 10
25.874409
 20
13.031844
 30
0.0
 11
27.155304
 21
13.050701
 31
0.0
  0
LINE
  5
472
100
AcDbEntity
  8
OBJECTS
100
AcDbLine
 10
27.121241
 20
13.071986
 30
0.0
 11
25.838945
 21
13.050701
 31
0.0
  0
LINE
  5
473
100
AcDbEntity
  8
OBJECTS
100
AcDbLine
 10
25.873008
 20
13.071986
 30
0.0
 11
27.156706
 21
13.090843
 31
0.0
  0
LINE
  5
474
100
AcDbEntity
  8
OBJECTS
100
AcDbLine
 10
27.122643
 20
13.112128
 30
0.0
 11
25.837543
 21
13.090843
 31
0.0
  0
LINE
  5
475
100
AcDbEntity
  8
OBJECTS
100
AcDbLine
 10
27.158108
 20
13.130985
 30
0.0
 11
25.871606
 21
13.112128
 31
0.0
  0
LINE
  5
476
100
AcDbEntity
  8
OBJECTS
100
AcDbLine
 10
25.836141
 20
13.130985
 30
0.0
 11
27.124045
 21
13.15227
 31
0.0
  0
LINE
  5
477
100
AcDbEntity
  8
OBJECTS
100
AcDbLine
 10
27.159509
 20
13.171127
 30
0.0
 11
25.870204
 21
13.15227
 31
0.0
  0
LINE
  5
478
100
AcDbEntity
  8
OBJECTS
100
AcDbLine
 10
25.834739
 20
13.171127
 30
0.0
 11
27.125446
 21
13.192411
 31
0.0
  0
LINE
  5
479
100
AcDbEntity
  8
OBJECTS
100
AcDbLine
 10
27.160911
 20
13.211268
 30
0.0
 11
25.868802
 21
13.192411
 31
0.0
  0
LINE
  5
47A
100
AcDbEntity
  8
OBJECTS
100
AcDbLine
 10
27.126848
 20
13.232553
 30
0.0
 11
25.833337
 21
13.211268
 31
0.0
  0
LINE
  5
47B
100
AcDbEntity
  8
OBJECTS
100
AcDbLine
 10
27.162313
 20
13.25141
 30
0.0
 11
25.8674
 21
13.232553
 31
0.0
  0
LINE
  5
47C
100
AcDbEntity
  8
OBJECTS
100
AcDbLine
 10
25.831936
 20
13.25141
 30
0.0
 11
27.12825
 21
13.272695
 31
0.0
  0
LINE
  5
47D
100
AcDbEntity
  8
OBJECTS
100
AcDbLine
 10
27.163715
 20
13.291552
 30
0.0
 11
25.865999
 21
13.272695
 31
0.0
  0
LINE
  5
47E
100
AcDbEntity
  8
OBJECTS
100
AcDbLine
 10
25.830534
 20
13.291552
 30
0.0
 11
27.129652
 21
13.312837
 31
0.0
  0
LINE
  5
47F
100
AcDbEntity
  8
OBJECTS
100
AcDbLine
 10
27.165117
 20
13.331694
 30
0.0
 11
25.864597
 21
13.312837
 31
0.0
  0
LINE
  5
480
100
AcDbEntity
  8
OBJECTS
100
AcDbLine
 10
25.829132
 20
13.331694
 30
0.0
 11
27.131054
 21
13.352979
 31
0.0
  0
LINE
  5
481
100
AcDbEntity
  8
OBJECTS
100
AcDbLine
 10
27.166518
 20
13.371835
 30
0.0
 11
25.863195
 21
13.352979
 31
0.0
  0
LINE
  5
482
100
AcDbEntity
  8
OBJECTS
100
AcDbLine
 10
25.82773
 20
13.371835
 30
0.0
 11
27.132455
 21
13.39312
 31
0.0
  0
LINE
  5
483
100
AcDbEntity
  8
OBJECTS
100
AcDbLine
 10
27.16792
 20
13.411977
 30
0.0
 11
25.861793
 21
13.39312
 31
0.0
  0
LINE
  5
484
100
AcDbEntity
  8
OBJECTS
100
AcDbLine
 10
25.826329
 20
13.411977
 30
0.0
 11
27.133857
 21
13.433262
 31
0.0
  0
LINE
  5
485
100
AcDbEntity
  8
OBJECTS
100
AcDbLine
 10
27.169322
 20
13.452119
 30
0.0
 11
25.860392
 21
13.433262
 31
0.0
  0
LINE
  5
486
100
AcDbEntity
  8
OBJECTS
100
AcDbLine
 10
25.824927
 20
13.452119
 30
0.0
 11
27.135259
 21
13.473404
 31
0.0
  0
LINE
  5
487
100
AcDbEntity
  8
OBJECTS
100
AcDbLine
 10
27.170724
 20
13.492261
 30
0.0
 11
25.85899
 21
13.473404
 31
0.0
  0
LINE
  5
488
100
AcDbEntity
  8
OBJECTS
100
AcDbLine
 10
25.823525
 20
13.492261
 30
0.0
 11
27.136661
 21
13.513546
 31
0.0
  0
LINE
  5
489
100
AcDbEntity
  8
OBJECTS
100
AcDbLine
 10
27.172125
 20
13.532403
 30
0.0
 11
25.857588
 21
13.513546
 31
0.0
  0
LINE
  5
48A
100
AcDbEntity
  8
OBJECTS
100
AcDbLine
 10
25.822123
 20
13.532403
 30
0.0
 11
27.138062
 21
13.553687
 31
0.0
  0
LINE
  5
48B
100
AcDbEntity
  8
OBJECTS
100
AcDbLine
 10
27.173527
 20
13.572544
 30
0.0
 11
25.856186
 21
13.553687
 31
0.0
  0
LINE
  5
48C
100
AcDbEntity
  8
OBJECTS
100
AcDbLine
 10
27.139464
 20
13.593829
 30
0.0
 11
25.820721
 21
13.572544
 31
0.0
  0
LINE
  5
48D
100
AcDbEntity
  8
OBJECTS
100
AcDbLine
 10
25.854784
 20
13.593829
 30
0.0
 11
27.174929
 21
13.612686
 31
0.0
  0
LINE
  5
48E
100
AcDbEntity
  8
OBJECTS
100
AcDbLine
 10
27.140866
 20
13.633971
 30
0.0
 11
25.81932
 21
13.612686
 31
0.0
  0
LINE
  5
48F
100
AcDbEntity
  8
OBJECTS
100
AcDbLine
 10
25.853383
 20
13.633971
 30
0.0
 11
27.176331
 21
13.652828
 31
0.0
  0
LINE
  5
490
100
AcDbEntity
  8
OBJECTS
100
AcDbLine
 10
27.142268
 20
13.674113
 30
0.0
 11
25.817918
 21
13.652828
 31
0.0
  0
LINE
  5
491
100
AcDbEntity
  8
OBJECTS
100
AcDbLine
 10
25.851981
 20
13.674113
 30
0.0
 11
27.177733
 21
13.69297
 31
0.0
  0
LINE
  5
492
100
AcDbEntity
  8
OBJECTS
100
AcDbLine
 10
27.14367
 20
13.714255
 30
0.0
 11
25.816516
 21
13.69297
 31
0.0
  0
LINE
  5
493
100
AcDbEntity
  8
OBJECTS
100
AcDbLine
 10
25.850579
 20
13.714255
 30
0.0
 11
27.179134
 21
13.733112
 31
0.0
  0
LINE
  5
494
100
AcDbEntity
  8
OBJECTS
100
AcDbLine
 10
25.815114
 20
13.733112
 30
0.0
 11
27.170752
 21
13.738349
 31
0.0
  0
LINE
  5
495
100
AcDbEntity
  8
OBJECTS
100
AcDbLine
 10
27.170752
 20
13.738349
 30
0.0
 11
25.823496
 21
13.738349
 31
0.0
  0
LINE
  5
496
100
AcDbEntity
  8
OBJECTS
100
AcDbLine
 10
28.184624
 20
18.114744
 30
0.0
 11
28.184624
 21
18.055944
 31
0.0
  0
LINE
  5
497
100
AcDbEntity
  8
OBJECTS
100
AcDbLine
 10
24.809624
 20
18.114744
 30
0.0
 11
24.809624
 21
18.055944
 31
0.0
  0
LINE
  5
498
100
AcDbEntity
  8
OBJECTS
100
AcDbLine
 10
24.825224
 20
18.130344
 30
0.0
 11
28.169024
 21
18.130344
 31
0.0
  0
LINE
  5
499
100
AcDbEntity
  8
OBJECTS
100
AcDbLine
 10
24.825224
 20
18.040344
 30
0.0
 11
28.169024
 21
18.040344
 31
0.0
  0
ARC
  5
49A
100
AcDbEntity
  8
OBJECTS
100
AcDbCircle
 10
28.144124
 20
18.192344
 30
0.0
 40
0.062
100
AcDbArc
 50
180.0
 51
270.0
  0
ARC
  5
49B
100
AcDbEntity
  8
OBJECTS
100
AcDbCircle
 10
28.144124
 20
17.978344
 30
0.0
 40
0.062
100
AcDbArc
 50
90.0
 51
180.0
  0
ARC
  5
49C
100
AcDbEntity
  8
OBJECTS
100
AcDbCircle
 10
24.850124
 20
17.978344
 30
0.0
 40
0.062
100
AcDbArc
 50
0.0
 51
90.0
  0
ARC
  5
49D
100
AcDbEntity
  8
OBJECTS
100
AcDbCircle
 10
24.850124
 20
18.192344
 30
0.0
 40
0.062
100
AcDbArc
 50
270.0
 51
0.0
  0
ARC
  5
49E
100
AcDbEntity
  8
OBJECTS
100
AcDbCircle
 10
24.825224
 20
18.114744
 30
0.0
 40
0.0156
100
AcDbArc
 50
90.0
 51
180.0
  0
ARC
  5
49F
100
AcDbEntity
  8
OBJECTS
100
AcDbCircle
 10
24.825224
 20
18.055944
 30
0.0
 40
0.0156
100
AcDbArc
 50
180.0
 51
270.0
  0
ARC
  5
4A0
100
AcDbEntity
  8
OBJECTS
100
AcDbCircle
 10
28.169024
 20
18.114744
 30
0.0
 40
0.0156
100
AcDbArc
 50
0.0
 51
90.0
  0
ARC
  5
4A1
100
AcDbEntity
  8
OBJECTS
100
AcDbCircle
 10
28.169024
 20
18.055944
 30
0.0
 40
0.0156
100
AcDbArc
 50
270.0
 51
0.0
  0
LINE
  5
4A2
100
AcDbEntity
  8
OBJECTS
100
AcDbLine
 10
28.082124
 20
17.978344
 30
0.0
 11
28.082124
 21
15.200901
 31
0.0
  0
LINE
  5
4A3
100
AcDbEntity
  8
OBJECTS
100
AcDbLine
 10
24.912124
 20
17.978344
 30
0.0
 11
24.912124
 21
15.200901
 31
0.0
  0
DIMENSION
  5
9D5
100
AcDbEntity
  8
DIM
100
AcDbDimension
  2
*D13
 10
31.293877
 20
13.031844
 30
0.0
 11
31.293877
 21
17.281844
 31
0.0
 70
    32
  1
C
  3
STANDARD
100
AcDbAlignedDimension
 13
26.497124
 23
21.531844
 33
0.0
 14
27.119839
 24
13.031844
 34
0.0
 50
90.0
100
AcDbRotatedDimension
  0
DIMENSION
  5
9FB
100
AcDbEntity
  8
DIM
100
AcDbDimension
  2
*D14
 10
24.809624
 20
22.960828
 30
0.0
 11
26.497124
 21
22.960828
 31
0.0
 70
    32
  3
STANDARD
100
AcDbAlignedDimension
 13
28.184624
 23
18.055944
 33
0.0
 14
24.809624
 24
18.114744
 34
0.0
100
AcDbRotatedDimension
  0
LINE
  5
A0A
100
AcDbEntity
  8
FULL
100
AcDbLine
 10
20.420808
 20
17.519844
 30
0.0
 11
23.764608
 21
17.519844
 31
0.0
  0
LINE
  5
A0B
100
AcDbEntity
  8
FULL
100
AcDbLine
 10
20.420808
 20
17.609844
 30
0.0
 11
23.764608
 21
17.609844
 31
0.0
  0
ARC
  5
A0C
100
AcDbEntity
  8
FULL
100
AcDbCircle
 10
20.420808
 20
17.594244
 30
0.0
 40
0.0156
100
AcDbArc
 50
90.0
 51
180.0
  0
ARC
  5
A0D
100
AcDbEntity
  8
FULL
100
AcDbCircle
 10
20.420808
 20
17.535444
 30
0.0
 40
0.0156
100
AcDbArc
 50
180.0
 51
270.0
  0
LINE
  5
A0E
100
AcDbEntity
  8
FULL
100
AcDbLine
 10
20.405208
 20
17.594244
 30
0.0
 11
20.405208
 21
17.535444
 31
0.0
  0
ARC
  5
A0F
100
AcDbEntity
  8
FULL
100
AcDbCircle
 10
20.445708
 20
17.457844
 30
0.0
 40
0.062
100
AcDbArc
 50
0.0
 51
90.0
  0
ARC
  5
A10
100
AcDbEntity
  8
FULL
100
AcDbCircle
 10
20.445708
 20
17.671844
 30
0.0
 40
0.062
100
AcDbArc
 50
270.0
 51
0.0
  0
ARC
  5
A11
100
AcDbEntity
  8
FULL
100
AcDbCircle
 10
23.764608
 20
17.535444
 30
0.0
 40
0.0156
100
AcDbArc
 50
270.0
 51
0.0
  0
ARC
  5
A12
100
AcDbEntity
  8
FULL
100
AcDbCircle
 10
23.764608
 20
17.594244
 30
0.0
 40
0.0156
100
AcDbArc
 50
0.0
 51
90.0
  0
ARC
  5
A13
100
AcDbEntity
  8
FULL
100
AcDbCircle
 10
23.739708
 20
17.457844
 30
0.0
 40
0.062
100
AcDbArc
 50
90.0
 51
180.0
  0
LINE
  5
A14
100
AcDbEntity
  8
FULL
100
AcDbLine
 10
23.780208
 20
17.594244
 30
0.0
 11
23.780208
 21
17.535444
 31
0.0
  0
ARC
  5
A15
100
AcDbEntity
  8
FULL
100
AcDbCircle
 10
23.739708
 20
17.671844
 30
0.0
 40
0.062
100
AcDbArc
 50
180.0
 51
270.0
  0
LINE
  5
A3D
100
AcDbEntity
  8
FULL
100
AcDbLine
 10
16.210365
 20
17.172344
 30
0.0
 11
19.554165
 21
17.172344
 31
0.0
  0
LINE
  5
A3E
100
AcDbEntity
  8
FULL
100
AcDbLine
 10
16.210365
 20
17.082344
 30
0.0
 11
19.554165
 21
17.082344
 31
0.0
  0
ARC
  5
A3F
100
AcDbEntity
  8
FULL
100
AcDbCircle
 10
16.235265
 20
17.234344
 30
0.0
 40
0.062
100
AcDbArc
 50
270.0
 51
0.0
  0
ARC
  5
A40
100
AcDbEntity
  8
FULL
100
AcDbCircle
 10
16.235265
 20
17.020344
 30
0.0
 40
0.062
100
AcDbArc
 50
0.0
 51
90.0
  0
LINE
  5
A41
100
AcDbEntity
  8
FULL
100
AcDbLine
 10
16.194765
 20
17.156744
 30
0.0
 11
16.194765
 21
17.097944
 31
0.0
  0
ARC
  5
A42
100
AcDbEntity
  8
FULL
100
AcDbCircle
 10
16.210365
 20
17.097944
 30
0.0
 40
0.0156
100
AcDbArc
 50
180.0
 51
270.0
  0
ARC
  5
A43
100
AcDbEntity
  8
FULL
100
AcDbCircle
 10
16.210365
 20
17.156744
 30
0.0
 40
0.0156
100
AcDbArc
 50
90.0
 51
180.0
  0
ARC
  5
A44
100
AcDbEntity
  8
FULL
100
AcDbCircle
 10
19.529265
 20
17.234344
 30
0.0
 40
0.062
100
AcDbArc
 50
180.0
 51
270.0
  0
LINE
  5
A45
100
AcDbEntity
  8
FULL
100
AcDbLine
 10
19.569765
 20
17.156744
 30
0.0
 11
19.569765
 21
17.097944
 31
0.0
  0
ARC
  5
A46
100
AcDbEntity
  8
FULL
100
AcDbCircle
 10
19.529265
 20
17.020344
 30
0.0
 40
0.062
100
AcDbArc
 50
90.0
 51
180.0
  0
ARC
  5
A47
100
AcDbEntity
  8
FULL
100
AcDbCircle
 10
19.554165
 20
17.156744
 30
0.0
 40
0.0156
100
AcDbArc
 50
0.0
 51
90.0
  0
ARC
  5
A48
100
AcDbEntity
  8
FULL
100
AcDbCircle
 10
19.554165
 20
17.097944
 30
0.0
 40
0.0156
100
AcDbArc
 50
270.0
 51
0.0
  0
LINE
  5
A7B
100
AcDbEntity
  8
FULL
100
AcDbLine
 10
12.138474
 20
16.109844
 30
0.0
 11
15.482274
 21
16.109844
 31
0.0
  0
LINE
  5
A7C
100
AcDbEntity
  8
FULL
100
AcDbLine
 10
12.138474
 20
16.019844
 30
0.0
 11
15.482274
 21
16.019844
 31
0.0
  0
LINE
  5
A7D
100
AcDbEntity
  8
FULL
100
AcDbLine
 10
12.122874
 20
16.094244
 30
0.0
 11
12.122874
 21
16.035444
 31
0.0
  0
ARC
  5
A7E
100
AcDbEntity
  8
FULL
100
AcDbCircle
 10
12.138474
 20
16.035444
 30
0.0
 40
0.0156
100
AcDbArc
 50
180.0
 51
270.0
  0
ARC
  5
A7F
100
AcDbEntity
  8
FULL
100
AcDbCircle
 10
12.138474
 20
16.094244
 30
0.0
 40
0.0156
100
AcDbArc
 50
90.0
 51
180.0
  0
ARC
  5
A80
100
AcDbEntity
  8
FULL
100
AcDbCircle
 10
12.163374
 20
16.171844
 30
0.0
 40
0.062
100
AcDbArc
 50
270.0
 51
0.0
  0
ARC
  5
A81
100
AcDbEntity
  8
FULL
100
AcDbCircle
 10
12.163374
 20
15.957844
 30
0.0
 40
0.062
100
AcDbArc
 50
0.0
 51
90.0
  0
ARC
  5
A82
100
AcDbEntity
  8
FULL
100
AcDbCircle
 10
15.457374
 20
16.171844
 30
0.0
 40
0.062
100
AcDbArc
 50
180.0
 51
270.0
  0
ARC
  5
A83
100
AcDbEntity
  8
FULL
100
AcDbCircle
 10
15.457374
 20
15.957844
 30
0.0
 40
0.062
100
AcDbArc
 50
90.0
 51
180.0
  0
LINE
  5
A84
100
AcDbEntity
  8
FULL
100
AcDbLine
 10
15.497874
 20
16.094244
 30
0.0
 11
15.497874
 21
16.035444
 31
0.0
  0
ARC
  5
A85
100
AcDbEntity
  8
FULL
100
AcDbCircle
 10
15.482274
 20
16.094244
 30
0.0
 40
0.0156
100
AcDbArc
 50
0.0
 51
90.0
  0
ARC
  5
A86
100
AcDbEntity
  8
FULL
100
AcDbCircle
 10
15.482274
 20
16.035444
 30
0.0
 40
0.0156
100
AcDbArc
 50
270.0
 51
0.0
  0
LINE
  5
A87
100
AcDbEntity
  8
FULL
100
AcDbLine
 10
8.30371
 20
15.553844
 30
0.0
 11
11.64751
 21
15.553844
 31
0.0
  0
LINE
  5
A88
100
AcDbEntity
  8
FULL
100
AcDbLine
 10
8.30371
 20
15.643844
 30
0.0
 11
11.64751
 21
15.643844
 31
0.0
  0
ARC
  5
A89
100
AcDbEntity
  8
FULL
100
AcDbCircle
 10
8.32861
 20
15.491844
 30
0.0
 40
0.062
100
AcDbArc
 50
0.0
 51
90.0
  0
ARC
  5
A8A
100
AcDbEntity
  8
FULL
100
AcDbCircle
 10
8.32861
 20
15.705844
 30
0.0
 40
0.062
100
AcDbArc
 50
270.0
 51
0.0
  0
ARC
  5
A8B
100
AcDbEntity
  8
FULL
100
AcDbCircle
 10
8.30371
 20
15.628244
 30
0.0
 40
0.0156
100
AcDbArc
 50
90.0
 51
180.0
  0
ARC
  5
A8C
100
AcDbEntity
  8
FULL
100
AcDbCircle
 10
8.30371
 20
15.569444
 30
0.0
 40
0.0156
100
AcDbArc
 50
180.0
 51
270.0
  0
LINE
  5
A8D
100
AcDbEntity
  8
FULL
100
AcDbLine
 10
8.28811
 20
15.628244
 30
0.0
 11
8.28811
 21
15.569444
 31
0.0
  0
ARC
  5
A8E
100
AcDbEntity
  8
FULL
100
AcDbCircle
 10
11.64751
 20
15.569444
 30
0.0
 40
0.0156
100
AcDbArc
 50
270.0
 51
0.0
  0
ARC
  5
A8F
100
AcDbEntity
  8
FULL
100
AcDbCircle
 10
11.64751
 20
15.628244
 30
0.0
 40
0.0156
100
AcDbArc
 50
0.0
 51
90.0
  0
LINE
  5
A90
100
AcDbEntity
  8
FULL
100
AcDbLine
 10
11.66311
 20
15.628244
 30
0.0
 11
11.66311
 21
15.569444
 31
0.0
  0
ARC
  5
A91
100
AcDbEntity
  8
FULL
100
AcDbCircle
 10
11.62261
 20
15.491844
 30
0.0
 40
0.062
100
AcDbArc
 50
90.0
 51
180.0
  0
ARC
  5
A92
100
AcDbEntity
  8
FULL
100
AcDbCircle
 10
11.62261
 20
15.705844
 30
0.0
 40
0.062
100
AcDbArc
 50
180.0
 51
270.0
  0
LINE
  5
AE1
100
AcDbEntity
  8
FULL
100
AcDbLine
 10
10.504622
 20
13.146241
 30
0.0
 11
10.476645
 21
13.163723
 31
0.0
  0
LINE
  5
AE2
100
AcDbEntity
  8
FULL
100
AcDbLine
 10
9.446597
 20
13.146241
 30
0.0
 11
9.474574
 21
13.163723
 31
0.0
  0
LINE
  5
AE3
100
AcDbEntity
  8
FULL
100
AcDbLine
 10
10.476645
 20
13.163723
 30
0.0
 11
9.446597
 21
13.146241
 31
0.0
  0
LINE
  5
AE4
100
AcDbEntity
  8
FULL
100
AcDbLine
 10
9.47918
 20
13.031844
 30
0.0
 11
10.47204
 21
13.031844
 31
0.0
  0
LINE
  5
AE5
100
AcDbEntity
  8
FULL
100
AcDbLine
 10
9.47918
 20
13.031844
 30
0.0
 11
10.501168
 21
13.047332
 31
0.0
  0
LINE
  5
AE6
100
AcDbEntity
  8
FULL
100
AcDbLine
 10
9.450051
 20
13.047332
 30
0.0
 11
10.473191
 21
13.064814
 31
0.0
  0
LINE
  5
AE7
100
AcDbEntity
  8
FULL
100
AcDbLine
 10
9.478028
 20
13.064814
 30
0.0
 11
10.502319
 21
13.080302
 31
0.0
  0
LINE
  5
AE8
100
AcDbEntity
  8
FULL
100
AcDbLine
 10
10.474342
 20
13.097784
 30
0.0
 11
9.4489
 21
13.080302
 31
0.0
  0
LINE
  5
AE9
100
AcDbEntity
  8
FULL
100
AcDbLine
 10
9.476877
 20
13.097784
 30
0.0
 11
10.503471
 21
13.113271
 31
0.0
  0
LINE
  5
AEA
100
AcDbEntity
  8
FULL
100
AcDbLine
 10
10.475494
 20
13.130753
 30
0.0
 11
9.447749
 21
13.113271
 31
0.0
  0
LINE
  5
AEB
100
AcDbEntity
  8
FULL
100
AcDbLine
 10
9.475726
 20
13.130753
 30
0.0
 11
10.504622
 21
13.146241
 31
0.0
  0
LINE
  5
AEC
100
AcDbEntity
  8
FULL
100
AcDbLine
 10
9.47918
 20
13.031844
 30
0.0
 11
9.450051
 21
13.047332
 31
0.0
  0
LINE
  5
AED
100
AcDbEntity
  8
FULL
100
AcDbLine
 10
9.450051
 20
13.047332
 30
0.0
 11
9.478028
 21
13.064814
 31
0.0
  0
LINE
  5
AEE
100
AcDbEntity
  8
FULL
100
AcDbLine
 10
9.4489
 20
13.080302
 30
0.0
 11
9.476877
 21
13.097784
 31
0.0
  0
LINE
  5
AEF
100
AcDbEntity
  8
FULL
100
AcDbLine
 10
9.478028
 20
13.064814
 30
0.0
 11
9.4489
 21
13.080302
 31
0.0
  0
LINE
  5
AF0
100
AcDbEntity
  8
FULL
100
AcDbLine
 10
9.475726
 20
13.130753
 30
0.0
 11
9.446597
 21
13.146241
 31
0.0
  0
LINE
  5
AF1
100
AcDbEntity
  8
FULL
100
AcDbLine
 10
9.447749
 20
13.113271
 30
0.0
 11
9.475726
 21
13.130753
 31
0.0
  0
LINE
  5
AF2
100
AcDbEntity
  8
FULL
100
AcDbLine
 10
9.476877
 20
13.097784
 30
0.0
 11
9.447749
 21
13.113271
 31
0.0
  0
LINE
  5
AF3
100
AcDbEntity
  8
FULL
100
AcDbLine
 10
10.474342
 20
13.097784
 30
0.0
 11
10.503471
 21
13.113271
 31
0.0
  0
LINE
  5
AF4
100
AcDbEntity
  8
FULL
100
AcDbLine
 10
10.503471
 20
13.113271
 30
0.0
 11
10.475494
 21
13.130753
 31
0.0
  0
LINE
  5
AF5
100
AcDbEntity
  8
FULL
100
AcDbLine
 10
10.475494
 20
13.130753
 30
0.0
 11
10.504622
 21
13.146241
 31
0.0
  0
LINE
  5
AF6
100
AcDbEntity
  8
FULL
100
AcDbLine
 10
10.473191
 20
13.064814
 30
0.0
 11
10.502319
 21
13.080302
 31
0.0
  0
LINE
  5
AF7
100
AcDbEntity
  8
FULL
100
AcDbLine
 10
10.502319
 20
13.080302
 30
0.0
 11
10.474342
 21
13.097784
 31
0.0
  0
LINE
  5
AF8
100
AcDbEntity
  8
FULL
100
AcDbLine
 10
10.501168
 20
13.047332
 30
0.0
 11
10.473191
 21
13.064814
 31
0.0
  0
LINE
  5
AF9
100
AcDbEntity
  8
FULL
100
AcDbLine
 10
10.47204
 20
13.031844
 30
0.0
 11
10.501168
 21
13.047332
 31
0.0
  0
LINE
  5
AFA
100
AcDbEntity
  8
FULL
100
AcDbLine
 10
9.425873
 20
13.739696
 30
0.0
 11
10.525346
 21
13.739696
 31
0.0
  0
LINE
  5
AFB
100
AcDbEntity
  8
FULL
100
AcDbLine
 10
9.474574
 20
13.163723
 30
0.0
 11
10.505773
 21
13.179211
 31
0.0
  0
LINE
  5
AFC
100
AcDbEntity
  8
FULL
100
AcDbLine
 10
10.477796
 20
13.196693
 30
0.0
 11
9.445446
 21
13.179211
 31
0.0
  0
LINE
  5
AFD
100
AcDbEntity
  8
FULL
100
AcDbLine
 10
9.473423
 20
13.196693
 30
0.0
 11
10.506925
 21
13.21218
 31
0.0
  0
LINE
  5
AFE
100
AcDbEntity
  8
FULL
100
AcDbLine
 10
10.478948
 20
13.229662
 30
0.0
 11
9.444295
 21
13.21218
 31
0.0
  0
LINE
  5
AFF
100
AcDbEntity
  8
FULL
100
AcDbLine
 10
9.472272
 20
13.229662
 30
0.0
 11
10.508076
 21
13.24515
 31
0.0
  0
LINE
  5
B00
100
AcDbEntity
  8
FULL
100
AcDbLine
 10
10.480099
 20
13.262632
 30
0.0
 11
9.443143
 21
13.24515
 31
0.0
  0
LINE
  5
B01
100
AcDbEntity
  8
FULL
100
AcDbLine
 10
9.47112
 20
13.262632
 30
0.0
 11
10.509227
 21
13.27812
 31
0.0
  0
LINE
  5
B02
100
AcDbEntity
  8
FULL
100
AcDbLine
 10
10.48125
 20
13.295602
 30
0.0
 11
9.441992
 21
13.27812
 31
0.0
  0
LINE
  5
B03
100
AcDbEntity
  8
FULL
100
AcDbLine
 10
9.469969
 20
13.295602
 30
0.0
 11
10.510379
 21
13.31109
 31
0.0
  0
LINE
  5
B04
100
AcDbEntity
  8
FULL
100
AcDbLine
 10
10.482402
 20
13.328572
 30
0.0
 11
9.440841
 21
13.31109
 31
0.0
  0
LINE
  5
B05
100
AcDbEntity
  8
FULL
100
AcDbLine
 10
9.468818
 20
13.328572
 30
0.0
 11
10.51153
 21
13.344059
 31
0.0
  0
LINE
  5
B06
100
AcDbEntity
  8
FULL
100
AcDbLine
 10
10.483553
 20
13.361541
 30
0.0
 11
9.439689
 21
13.344059
 31
0.0
  0
LINE
  5
B07
100
AcDbEntity
  8
FULL
100
AcDbLine
 10
9.467666
 20
13.361541
 30
0.0
 11
10.512681
 21
13.377029
 31
0.0
  0
LINE
  5
B08
100
AcDbEntity
  8
FULL
100
AcDbLine
 10
10.484704
 20
13.394511
 30
0.0
 11
9.438538
 21
13.377029
 31
0.0
  0
LINE
  5
B09
100
AcDbEntity
  8
FULL
100
AcDbLine
 10
9.466515
 20
13.394511
 30
0.0
 11
10.513832
 21
13.409999
 31
0.0
  0
LINE
  5
B0A
100
AcDbEntity
  8
FULL
100
AcDbLine
 10
10.485856
 20
13.427481
 30
0.0
 11
9.437387
 21
13.409999
 31
0.0
  0
LINE
  5
B0B
100
AcDbEntity
  8
FULL
100
AcDbLine
 10
9.465364
 20
13.427481
 30
0.0
 11
10.514984
 21
13.442968
 31
0.0
  0
LINE
  5
B0C
100
AcDbEntity
  8
FULL
100
AcDbLine
 10
10.487007
 20
13.46045
 30
0.0
 11
9.436235
 21
13.442968
 31
0.0
  0
LINE
  5
B0D
100
AcDbEntity
  8
FULL
100
AcDbLine
 10
9.464212
 20
13.46045
 30
0.0
 11
10.516135
 21
13.475938
 31
0.0
  0
LINE
  5
B0E
100
AcDbEntity
  8
FULL
100
AcDbLine
 10
10.488158
 20
13.49342
 30
0.0
 11
9.435084
 21
13.475938
 31
0.0
  0
LINE
  5
B0F
100
AcDbEntity
  8
FULL
100
AcDbLine
 10
9.463061
 20
13.49342
 30
0.0
 11
10.517286
 21
13.508908
 31
0.0
  0
LINE
  5
B10
100
AcDbEntity
  8
FULL
100
AcDbLine
 10
10.48931
 20
13.52639
 30
0.0
 11
9.433933
 21
13.508908
 31
0.0
  0
LINE
  5
B11
100
AcDbEntity
  8
FULL
100
AcDbLine
 10
9.46191
 20
13.52639
 30
0.0
 11
10.518438
 21
13.541877
 31
0.0
  0
LINE
  5
B12
100
AcDbEntity
  8
FULL
100
AcDbLine
 10
10.490461
 20
13.559359
 30
0.0
 11
9.432781
 21
13.541877
 31
0.0
  0
LINE
  5
B13
100
AcDbEntity
  8
FULL
100
AcDbLine
 10
9.460758
 20
13.559359
 30
0.0
 11
10.519589
 21
13.574847
 31
0.0
  0
LINE
  5
B14
100
AcDbEntity
  8
FULL
100
AcDbLine
 10
10.491612
 20
13.592329
 30
0.0
 11
9.43163
 21
13.574847
 31
0.0
  0
LINE
  5
B15
100
AcDbEntity
  8
FULL
100
AcDbLine
 10
9.459607
 20
13.592329
 30
0.0
 11
10.52074
 21
13.607817
 31
0.0
  0
LINE
  5
B16
100
AcDbEntity
  8
FULL
100
AcDbLine
 10
10.492764
 20
13.625299
 30
0.0
 11
9.430479
 21
13.607817
 31
0.0
  0
LINE
  5
B17
100
AcDbEntity
  8
FULL
100
AcDbLine
 10
9.458456
 20
13.625299
 30
0.0
 11
10.521892
 21
13.640787
 31
0.0
  0
LINE
  5
B18
100
AcDbEntity
  8
FULL
100
AcDbLine
 10
10.493915
 20
13.658268
 30
0.0
 11
9.429327
 21
13.640787
 31
0.0
  0
LINE
  5
B19
100
AcDbEntity
  8
FULL
100
AcDbLine
 10
9.457304
 20
13.658268
 30
0.0
 11
10.523043
 21
13.673756
 31
0.0
  0
LINE
  5
B1A
100
AcDbEntity
  8
FULL
100
AcDbLine
 10
10.495066
 20
13.691238
 30
0.0
 11
9.428176
 21
13.673756
 31
0.0
  0
LINE
  5
B1B
100
AcDbEntity
  8
FULL
100
AcDbLine
 10
9.456153
 20
13.691238
 30
0.0
 11
10.524194
 21
13.706726
 31
0.0
  0
LINE
  5
B1C
100
AcDbEntity
  8
FULL
100
AcDbLine
 10
10.496217
 20
13.724208
 30
0.0
 11
9.427025
 21
13.706726
 31
0.0
  0
LINE
  5
B1D
100
AcDbEntity
  8
FULL
100
AcDbLine
 10
9.455002
 20
13.724208
 30
0.0
 11
10.525346
 21
13.739696
 31
0.0
  0
LINE
  5
B1E
100
AcDbEntity
  8
FULL
100
AcDbLine
 10
9.425873
 20
13.739696
 30
0.0
 11
9.39943
 21
14.496938
 31
0.0
  0
LINE
  5
B1F
100
AcDbEntity
  8
FULL
100
AcDbLine
 10
9.457304
 20
13.658268
 30
0.0
 11
9.428176
 21
13.673756
 31
0.0
  0
LINE
  5
B20
100
AcDbEntity
  8
FULL
100
AcDbLine
 10
9.437387
 20
13.409999
 30
0.0
 11
9.465364
 21
13.427481
 31
0.0
  0
LINE
  5
B21
100
AcDbEntity
  8
FULL
100
AcDbLine
 10
9.463061
 20
13.49342
 30
0.0
 11
9.433933
 21
13.508908
 31
0.0
  0
LINE
  5
B22
100
AcDbEntity
  8
FULL
100
AcDbLine
 10
9.433933
 20
13.508908
 30
0.0
 11
9.46191
 21
13.52639
 31
0.0
  0
LINE
  5
B23
100
AcDbEntity
  8
FULL
100
AcDbLine
 10
9.432781
 20
13.541877
 30
0.0
 11
9.460758
 21
13.559359
 31
0.0
  0
LINE
  5
B24
100
AcDbEntity
  8
FULL
100
AcDbLine
 10
9.46191
 20
13.52639
 30
0.0
 11
9.432781
 21
13.541877
 31
0.0
  0
LINE
  5
B25
100
AcDbEntity
  8
FULL
100
AcDbLine
 10
9.464212
 20
13.46045
 30
0.0
 11
9.435084
 21
13.475938
 31
0.0
  0
LINE
  5
B26
100
AcDbEntity
  8
FULL
100
AcDbLine
 10
9.435084
 20
13.475938
 30
0.0
 11
9.463061
 21
13.49342
 31
0.0
  0
LINE
  5
B27
100
AcDbEntity
  8
FULL
100
AcDbLine
 10
9.436235
 20
13.442968
 30
0.0
 11
9.464212
 21
13.46045
 31
0.0
  0
LINE
  5
B28
100
AcDbEntity
  8
FULL
100
AcDbLine
 10
9.465364
 20
13.427481
 30
0.0
 11
9.436235
 21
13.442968
 31
0.0
  0
LINE
  5
B29
100
AcDbEntity
  8
FULL
100
AcDbLine
 10
9.458456
 20
13.625299
 30
0.0
 11
9.429327
 21
13.640787
 31
0.0
  0
LINE
  5
B2A
100
AcDbEntity
  8
FULL
100
AcDbLine
 10
9.429327
 20
13.640787
 30
0.0
 11
9.457304
 21
13.658268
 31
0.0
  0
LINE
  5
B2B
100
AcDbEntity
  8
FULL
100
AcDbLine
 10
9.459607
 20
13.592329
 30
0.0
 11
9.430479
 21
13.607817
 31
0.0
  0
LINE
  5
B2C
100
AcDbEntity
  8
FULL
100
AcDbLine
 10
9.430479
 20
13.607817
 30
0.0
 11
9.458456
 21
13.625299
 31
0.0
  0
LINE
  5
B2D
100
AcDbEntity
  8
FULL
100
AcDbLine
 10
9.43163
 20
13.574847
 30
0.0
 11
9.459607
 21
13.592329
 31
0.0
  0
LINE
  5
B2E
100
AcDbEntity
  8
FULL
100
AcDbLine
 10
9.460758
 20
13.559359
 30
0.0
 11
9.43163
 21
13.574847
 31
0.0
  0
LINE
  5
B2F
100
AcDbEntity
  8
FULL
100
AcDbLine
 10
9.472272
 20
13.229662
 30
0.0
 11
9.443143
 21
13.24515
 31
0.0
  0
LINE
  5
B30
100
AcDbEntity
  8
FULL
100
AcDbLine
 10
9.443143
 20
13.24515
 30
0.0
 11
9.47112
 21
13.262632
 31
0.0
  0
LINE
  5
B31
100
AcDbEntity
  8
FULL
100
AcDbLine
 10
9.441992
 20
13.27812
 30
0.0
 11
9.469969
 21
13.295602
 31
0.0
  0
LINE
  5
B32
100
AcDbEntity
  8
FULL
100
AcDbLine
 10
9.47112
 20
13.262632
 30
0.0
 11
9.441992
 21
13.27812
 31
0.0
  0
LINE
  5
B33
100
AcDbEntity
  8
FULL
100
AcDbLine
 10
9.473423
 20
13.196693
 30
0.0
 11
9.444295
 21
13.21218
 31
0.0
  0
LINE
  5
B34
100
AcDbEntity
  8
FULL
100
AcDbLine
 10
9.444295
 20
13.21218
 30
0.0
 11
9.472272
 21
13.229662
 31
0.0
  0
LINE
  5
B35
100
AcDbEntity
  8
FULL
100
AcDbLine
 10
9.445446
 20
13.179211
 30
0.0
 11
9.473423
 21
13.196693
 31
0.0
  0
LINE
  5
B36
100
AcDbEntity
  8
FULL
100
AcDbLine
 10
9.474574
 20
13.163723
 30
0.0
 11
9.445446
 21
13.179211
 31
0.0
  0
LINE
  5
B37
100
AcDbEntity
  8
FULL
100
AcDbLine
 10
9.467666
 20
13.361541
 30
0.0
 11
9.438538
 21
13.377029
 31
0.0
  0
LINE
  5
B38
100
AcDbEntity
  8
FULL
100
AcDbLine
 10
9.438538
 20
13.377029
 30
0.0
 11
9.466515
 21
13.394511
 31
0.0
  0
LINE
  5
B39
100
AcDbEntity
  8
FULL
100
AcDbLine
 10
9.468818
 20
13.328572
 30
0.0
 11
9.439689
 21
13.344059
 31
0.0
  0
LINE
  5
B3A
100
AcDbEntity
  8
FULL
100
AcDbLine
 10
9.439689
 20
13.344059
 30
0.0
 11
9.467666
 21
13.361541
 31
0.0
  0
LINE
  5
B3B
100
AcDbEntity
  8
FULL
100
AcDbLine
 10
9.440841
 20
13.31109
 30
0.0
 11
9.468818
 21
13.328572
 31
0.0
  0
LINE
  5
B3C
100
AcDbEntity
  8
FULL
100
AcDbLine
 10
9.469969
 20
13.295602
 30
0.0
 11
9.440841
 21
13.31109
 31
0.0
  0
LINE
  5
B3D
100
AcDbEntity
  8
FULL
100
AcDbLine
 10
9.466515
 20
13.394511
 30
0.0
 11
9.437387
 21
13.409999
 31
0.0
  0
LINE
  5
B3E
100
AcDbEntity
  8
FULL
100
AcDbLine
 10
9.428176
 20
13.673756
 30
0.0
 11
9.456153
 21
13.691238
 31
0.0
  0
LINE
  5
B3F
100
AcDbEntity
  8
FULL
100
AcDbLine
 10
9.455002
 20
13.724208
 30
0.0
 11
9.425873
 21
13.739696
 31
0.0
  0
LINE
  5
B40
100
AcDbEntity
  8
FULL
100
AcDbLine
 10
9.427025
 20
13.706726
 30
0.0
 11
9.455002
 21
13.724208
 31
0.0
  0
LINE
  5
B41
100
AcDbEntity
  8
FULL
100
AcDbLine
 10
9.456153
 20
13.691238
 30
0.0
 11
9.427025
 21
13.706726
 31
0.0
  0
ARC
  5
B42
100
AcDbEntity
  8
FULL
100
AcDbCircle
 10
9.154579
 20
14.488388
 30
0.0
 40
0.245
100
AcDbArc
 50
2.0
 51
75.899162
  0
LINE
  5
B43
100
AcDbEntity
  8
FULL
100
AcDbLine
 10
10.525346
 20
13.739696
 30
0.0
 11
10.551789
 21
14.496938
 31
0.0
  0
LINE
  5
B44
100
AcDbEntity
  8
FULL
100
AcDbLine
 10
10.493915
 20
13.658268
 30
0.0
 11
10.523043
 21
13.673756
 31
0.0
  0
LINE
  5
B45
100
AcDbEntity
  8
FULL
100
AcDbLine
 10
10.490461
 20
13.559359
 30
0.0
 11
10.519589
 21
13.574847
 31
0.0
  0
LINE
  5
B46
100
AcDbEntity
  8
FULL
100
AcDbLine
 10
10.519589
 20
13.574847
 30
0.0
 11
10.491612
 21
13.592329
 31
0.0
  0
LINE
  5
B47
100
AcDbEntity
  8
FULL
100
AcDbLine
 10
10.52074
 20
13.607817
 30
0.0
 11
10.492764
 21
13.625299
 31
0.0
  0
LINE
  5
B48
100
AcDbEntity
  8
FULL
100
AcDbLine
 10
10.491612
 20
13.592329
 30
0.0
 11
10.52074
 21
13.607817
 31
0.0
  0
LINE
  5
B49
100
AcDbEntity
  8
FULL
100
AcDbLine
 10
10.521892
 20
13.640787
 30
0.0
 11
10.493915
 21
13.658268
 31
0.0
  0
LINE
  5
B4A
100
AcDbEntity
  8
FULL
100
AcDbLine
 10
10.492764
 20
13.625299
 30
0.0
 11
10.521892
 21
13.640787
 31
0.0
  0
LINE
  5
B4B
100
AcDbEntity
  8
FULL
100
AcDbLine
 10
10.485856
 20
13.427481
 30
0.0
 11
10.514984
 21
13.442968
 31
0.0
  0
LINE
  5
B4C
100
AcDbEntity
  8
FULL
100
AcDbLine
 10
10.514984
 20
13.442968
 30
0.0
 11
10.487007
 21
13.46045
 31
0.0
  0
LINE
  5
B4D
100
AcDbEntity
  8
FULL
100
AcDbLine
 10
10.516135
 20
13.475938
 30
0.0
 11
10.488158
 21
13.49342
 31
0.0
  0
LINE
  5
B4E
100
AcDbEntity
  8
FULL
100
AcDbLine
 10
10.487007
 20
13.46045
 30
0.0
 11
10.516135
 21
13.475938
 31
0.0
  0
LINE
  5
B4F
100
AcDbEntity
  8
FULL
100
AcDbLine
 10
10.48931
 20
13.52639
 30
0.0
 11
10.518438
 21
13.541877
 31
0.0
  0
LINE
  5
B50
100
AcDbEntity
  8
FULL
100
AcDbLine
 10
10.518438
 20
13.541877
 30
0.0
 11
10.490461
 21
13.559359
 31
0.0
  0
LINE
  5
B51
100
AcDbEntity
  8
FULL
100
AcDbLine
 10
10.517286
 20
13.508908
 30
0.0
 11
10.48931
 21
13.52639
 31
0.0
  0
LINE
  5
B52
100
AcDbEntity
  8
FULL
100
AcDbLine
 10
10.488158
 20
13.49342
 30
0.0
 11
10.517286
 21
13.508908
 31
0.0
  0
LINE
  5
B53
100
AcDbEntity
  8
FULL
100
AcDbLine
 10
10.513832
 20
13.409999
 30
0.0
 11
10.485856
 21
13.427481
 31
0.0
  0
LINE
  5
B54
100
AcDbEntity
  8
FULL
100
AcDbLine
 10
10.48125
 20
13.295602
 30
0.0
 11
10.510379
 21
13.31109
 31
0.0
  0
LINE
  5
B55
100
AcDbEntity
  8
FULL
100
AcDbLine
 10
10.510379
 20
13.31109
 30
0.0
 11
10.482402
 21
13.328572
 31
0.0
  0
LINE
  5
B56
100
AcDbEntity
  8
FULL
100
AcDbLine
 10
10.51153
 20
13.344059
 30
0.0
 11
10.483553
 21
13.361541
 31
0.0
  0
LINE
  5
B57
100
AcDbEntity
  8
FULL
100
AcDbLine
 10
10.482402
 20
13.328572
 30
0.0
 11
10.51153
 21
13.344059
 31
0.0
  0
LINE
  5
B58
100
AcDbEntity
  8
FULL
100
AcDbLine
 10
10.512681
 20
13.377029
 30
0.0
 11
10.484704
 21
13.394511
 31
0.0
  0
LINE
  5
B59
100
AcDbEntity
  8
FULL
100
AcDbLine
 10
10.483553
 20
13.361541
 30
0.0
 11
10.512681
 21
13.377029
 31
0.0
  0
LINE
  5
B5A
100
AcDbEntity
  8
FULL
100
AcDbLine
 10
10.476645
 20
13.163723
 30
0.0
 11
10.505773
 21
13.179211
 31
0.0
  0
LINE
  5
B5B
100
AcDbEntity
  8
FULL
100
AcDbLine
 10
10.505773
 20
13.179211
 30
0.0
 11
10.477796
 21
13.196693
 31
0.0
  0
LINE
  5
B5C
100
AcDbEntity
  8
FULL
100
AcDbLine
 10
10.506925
 20
13.21218
 30
0.0
 11
10.478948
 21
13.229662
 31
0.0
  0
LINE
  5
B5D
100
AcDbEntity
  8
FULL
100
AcDbLine
 10
10.477796
 20
13.196693
 30
0.0
 11
10.506925
 21
13.21218
 31
0.0
  0
LINE
  5
B5E
100
AcDbEntity
  8
FULL
100
AcDbLine
 10
10.480099
 20
13.262632
 30
0.0
 11
10.509227
 21
13.27812
 31
0.0
  0
LINE
  5
B5F
100
AcDbEntity
  8
FULL
100
AcDbLine
 10
10.509227
 20
13.27812
 30
0.0
 11
10.48125
 21
13.295602
 31
0.0
  0
LINE
  5
B60
100
AcDbEntity
  8
FULL
100
AcDbLine
 10
10.508076
 20
13.24515
 30
0.0
 11
10.480099
 21
13.262632
 31
0.0
  0
LINE
  5
B61
100
AcDbEntity
  8
FULL
100
AcDbLine
 10
10.478948
 20
13.229662
 30
0.0
 11
10.508076
 21
13.24515
 31
0.0
  0
LINE
  5
B62
100
AcDbEntity
  8
FULL
100
AcDbLine
 10
10.484704
 20
13.394511
 30
0.0
 11
10.513832
 21
13.409999
 31
0.0
  0
LINE
  5
B63
100
AcDbEntity
  8
FULL
100
AcDbLine
 10
10.495066
 20
13.691238
 30
0.0
 11
10.524194
 21
13.706726
 31
0.0
  0
LINE
  5
B64
100
AcDbEntity
  8
FULL
100
AcDbLine
 10
10.524194
 20
13.706726
 30
0.0
 11
10.496217
 21
13.724208
 31
0.0
  0
LINE
  5
B65
100
AcDbEntity
  8
FULL
100
AcDbLine
 10
10.496217
 20
13.724208
 30
0.0
 11
10.525346
 21
13.739696
 31
0.0
  0
LINE
  5
B66
100
AcDbEntity
  8
FULL
100
AcDbLine
 10
10.523043
 20
13.673756
 30
0.0
 11
10.495066
 21
13.691238
 31
0.0
  0
ARC
  5
B67
100
AcDbEntity
  8
FULL
100
AcDbCircle
 10
10.79664
 20
14.488388
 30
0.0
 40
0.245
100
AcDbArc
 50
104.100838
 51
178.0
  0
ARC
  5
B68
100
AcDbEntity
  8
FULL
100
AcDbCircle
 10
7.285026
 20
15.962788
 30
0.0
 40
0.29
100
AcDbArc
 50
0.0
 51
62.819827
  0
ARC
  5
B69
100
AcDbEntity
  8
FULL
100
AcDbCircle
 10
7.285026
 20
15.234901
 30
0.0
 40
0.29
100
AcDbArc
 50
297.180173
 51
0.0
  0
LINE
  5
B6A
100
AcDbEntity
  8
FULL
100
AcDbLine
 10
4.318126
 20
15.553844
 30
0.0
 11
4.465026
 21
15.553844
 31
0.0
  0
LINE
  5
B6B
100
AcDbEntity
  8
FULL
100
AcDbLine
 10
4.318126
 20
15.643844
 30
0.0
 11
4.465026
 21
15.643844
 31
0.0
  0
ARC
  5
B6C
100
AcDbEntity
  8
FULL
100
AcDbCircle
 10
5.990026
 20
17.756844
 30
0.0
 40
3.125
100
AcDbArc
 50
242.819827
 51
253.715758
  0
ARC
  5
B6D
100
AcDbEntity
  8
FULL
100
AcDbCircle
 10
5.990026
 20
13.440844
 30
0.0
 40
3.125
100
AcDbArc
 50
62.819827
 51
117.180173
  0
LINE
  5
B6E
100
AcDbEntity
  8
FULL
100
AcDbLine
 10
4.405026
 20
15.705844
 30
0.0
 11
4.405026
 21
15.962788
 31
0.0
  0
LINE
  5
B6F
100
AcDbEntity
  8
FULL
100
AcDbLine
 10
4.405026
 20
15.491844
 30
0.0
 11
4.405026
 21
15.234901
 31
0.0
  0
ARC
  5
B70
100
AcDbEntity
  8
FULL
100
AcDbCircle
 10
4.695026
 20
15.234901
 30
0.0
 40
0.29
100
AcDbArc
 50
180.0
 51
242.819827
  0
ARC
  5
B71
100
AcDbEntity
  8
FULL
100
AcDbCircle
 10
4.318126
 20
15.628244
 30
0.0
 40
0.0156
100
AcDbArc
 50
90.0
 51
180.0
  0
ARC
  5
B72
100
AcDbEntity
  8
FULL
100
AcDbCircle
 10
4.318126
 20
15.569444
 30
0.0
 40
0.0156
100
AcDbArc
 50
180.0
 51
270.0
  0
LINE
  5
B73
100
AcDbEntity
  8
FULL
100
AcDbLine
 10
4.302526
 20
15.628244
 30
0.0
 11
4.302526
 21
15.569444
 31
0.0
  0
ARC
  5
B74
100
AcDbEntity
  8
FULL
100
AcDbCircle
 10
4.343026
 20
15.491844
 30
0.0
 40
0.062
100
AcDbArc
 50
0.0
 51
90.0
  0
ARC
  5
B75
100
AcDbEntity
  8
FULL
100
AcDbCircle
 10
4.343026
 20
15.705844
 30
0.0
 40
0.062
100
AcDbArc
 50
270.0
 51
0.0
  0
ARC
  5
B76
100
AcDbEntity
  8
FULL
100
AcDbCircle
 10
4.695026
 20
15.962788
 30
0.0
 40
0.29
100
AcDbArc
 50
117.180173
 51
180.0
  0
ARC
  5
B77
100
AcDbEntity
  8
FULL
100
AcDbCircle
 10
5.990026
 20
17.756844
 30
0.0
 40
3.125
100
AcDbArc
 50
253.715758
 51
297.180173
  0
ARC
  5
B78
100
AcDbEntity
  8
FULL
100
AcDbCircle
 10
5.168996
 20
14.488388
 30
0.0
 40
0.245
100
AcDbArc
 50
2.0
 51
75.899162
  0
ARC
  5
B79
100
AcDbEntity
  8
FULL
100
AcDbCircle
 10
6.811056
 20
14.488388
 30
0.0
 40
0.245
100
AcDbArc
 50
104.100838
 51
178.0
  0
LINE
  5
B7A
100
AcDbEntity
  8
FULL
100
AcDbLine
 10
7.575026
 20
15.705844
 30
0.0
 11
7.575026
 21
15.962788
 31
0.0
  0
LINE
  5
B7B
100
AcDbEntity
  8
FULL
100
AcDbLine
 10
7.575026
 20
15.491844
 30
0.0
 11
7.575026
 21
15.234901
 31
0.0
  0
ARC
  5
B7C
100
AcDbEntity
  8
FULL
100
AcDbCircle
 10
7.661926
 20
15.569444
 30
0.0
 40
0.0156
100
AcDbArc
 50
270.0
 51
0.0
  0
ARC
  5
B7D
100
AcDbEntity
  8
FULL
100
AcDbCircle
 10
7.661926
 20
15.628244
 30
0.0
 40
0.0156
100
AcDbArc
 50
0.0
 51
90.0
  0
LINE
  5
B7E
100
AcDbEntity
  8
FULL
100
AcDbLine
 10
7.677526
 20
15.628244
 30
0.0
 11
7.677526
 21
15.569444
 31
0.0
  0
ARC
  5
B7F
100
AcDbEntity
  8
FULL
100
AcDbCircle
 10
7.637026
 20
15.491844
 30
0.0
 40
0.062
100
AcDbArc
 50
90.0
 51
180.0
  0
ARC
  5
B80
100
AcDbEntity
  8
FULL
100
AcDbCircle
 10
7.637026
 20
15.705844
 30
0.0
 40
0.062
100
AcDbArc
 50
180.0
 51
270.0
  0
ARC
  5
B86
100
AcDbEntity
  8
FULL
100
AcDbCircle
 10
4.695026
 20
15.234901
 30
0.0
 40
0.23
100
AcDbArc
 50
180.0
 51
242.819827
  0
ARC
  5
B87
100
AcDbEntity
  8
FULL
100
AcDbCircle
 10
5.990026
 20
17.756844
 30
0.0
 40
3.065
100
AcDbArc
 50
242.819827
 51
262.40881
  0
LINE
  5
B88
100
AcDbEntity
  8
FULL
100
AcDbLine
 10
4.465026
 20
15.553844
 30
0.0
 11
4.465026
 21
15.234901
 31
0.0
  0
ARC
  5
B89
100
AcDbEntity
  8
FULL
100
AcDbCircle
 10
4.695026
 20
15.962788
 30
0.0
 40
0.23
100
AcDbArc
 50
117.180173
 51
180.0
  0
ARC
  5
B8A
100
AcDbEntity
  8
FULL
100
AcDbCircle
 10
5.990026
 20
13.440844
 30
0.0
 40
3.065
100
AcDbArc
 50
93.765685
 51
117.180173
  0
LINE
  5
B8B
100
AcDbEntity
  8
FULL
100
AcDbLine
 10
4.465026
 20
15.643844
 30
0.0
 11
4.465026
 21
15.962788
 31
0.0
  0
LINE
  5
B8F
100
AcDbEntity
  8
FULL
100
AcDbLine
 10
5.651759
 20
15.643844
 30
0.0
 11
7.661926
 21
15.643844
 31
0.0
  0
LINE
  5
B90
100
AcDbEntity
  8
FULL
100
AcDbLine
 10
5.636731
 20
15.553844
 30
0.0
 11
7.661926
 21
15.553844
 31
0.0
  0
DIMENSION
  5
BC6
100
AcDbEntity
  8
DIM
100
AcDbDimension
  2
*D20
 10
27.155304
 20
11.564055
 30
0.0
 11
29.349352
 21
11.564055
 31
0.0
 70
    32
  1
A-I.P.S.
  3
STANDARD
100
AcDbAlignedDimension
 13
25.838945
 23
13.050701
 33
0.0
 14
27.155304
 24
13.050701
 34
0.0
100
AcDbRotatedDimension
  0
DIMENSION
  5
BD4
100
AcDbEntity
  8
FULL
100
AcDbDimension
  2
*D21
 10
-10.122725
 20
21.531844
 30
0.0
 11
-10.122725
 21
17.281844
 31
0.0
 70
   160
  3
STANDARD
100
AcDbAlignedDimension
 13
5.493596
 23
13.031844
 33
0.0
 14
26.497124
 24
21.531844
 34
0.0
 50
90.0
100
AcDbRotatedDimension
  0
DIMENSION
  5
BE2
100
AcDbEntity
  8
FULL
100
AcDbDimension
  2
*D22
 10
-7.599492
 20
20.531844
 30
0.0
 11
-7.599492
 21
15.740061
 31
0.0
 70
   160
  3
STANDARD
100
AcDbAlignedDimension
 13
5.493596
 23
13.031844
 33
0.0
 14
22.092708
 24
20.531844
 34
0.0
 50
90.0
100
AcDbRotatedDimension
  0
DIMENSION
  5
BF0
100
AcDbEntity
  8
FULL
100
AcDbDimension
  2
*D23
 10
-3.974567
 20
19.656844
 30
0.0
 11
-3.974567
 21
16.912298
 31
0.0
 70
   160
  3
STANDARD
100
AcDbAlignedDimension
 13
5.493596
 23
13.031844
 33
0.0
 14
17.882265
 24
19.656844
 34
0.0
 50
90.0
100
AcDbRotatedDimension
  0
DIMENSION
  5
BFE
100
AcDbEntity
  8
FULL
100
AcDbDimension
  2
*D24
 10
-0.84718
 20
17.531844
 30
0.0
 11
-0.84718
 21
15.281844
 31
0.0
 70
   160
  3
STANDARD
100
AcDbAlignedDimension
 13
5.493596
 23
13.031844
 33
0.0
 14
13.810374
 24
17.531844
 34
0.0
 50
90.0
100
AcDbRotatedDimension
  0
DIMENSION
  5
C0C
100
AcDbEntity
  8
FULL
100
AcDbDimension
  2
*D25
 10
2.493438
 20
16.565844
 30
0.0
 11
2.493438
 21
14.798844
 31
0.0
 70
   160
  3
STANDARD
100
AcDbAlignedDimension
 13
5.493596
 23
13.031844
 33
0.0
 14
9.97561
 24
16.565844
 34
0.0
 50
90.0
100
AcDbRotatedDimension
  0
DIMENSION
  5
CAA
100
AcDbEntity
  8
FULL
100
AcDbDimension
  2
*D26
 10
5.464468
 20
12.014682
 30
0.0
 11
2.42042
 21
12.014682
 31
0.0
 70
    32
  1
\A1;{\H1.000000x;\S3/4;} [19] I.P.S.
  3
STANDARD
100
AcDbAlignedDimension
 13
6.515584
 23
13.047332
 33
0.0
 14
5.464468
 24
13.047332
 34
0.0
100
AcDbRotatedDimension
  0
DIMENSION
  5
CCF
100
AcDbEntity
  8
FULL
100
AcDbDimension
  2
*D28
 10
9.450051
 20
10.540826
 30
0.0
 11
6.406004
 21
10.540826
 31
0.0
 70
   160
  1
\A1;{\H1.000000x;\S3/4;} [19] I.P.S.
  3
STANDARD
100
AcDbAlignedDimension
 13
10.501168
 23
13.047332
 33
0.0
 14
9.450051
 24
13.047332
 34
0.0
100
AcDbRotatedDimension
  0
LEADER
  5
CF7
100
AcDbEntity
  8
FULL
100
AcDbLeader
  3
STANDARD
 76
     3
 10
22.092708
 20
13.031844
 30
0.0
 10
20.612396
 20
10.468338
 30
0.0
 10
20.032229
 20
10.468338
 30
0.0
 77
   256
1001
ACAD
1000
LEANOF
1010
0.0
1020
0.0
1030
0.0
  0
LEADER
  5
CF8
100
AcDbEntity
  8
FULL
100
AcDbLeader
  3
STANDARD
 76
     2
 10
17.882265
 20
13.031844
 30
0.0
 10
20.612396
 20
10.468338
 30
0.0
 77
   256
1001
ACAD
1000
LEANOF
1010
0.0
1020
0.0
1030
0.0
  0
LEADER
  5
CF9
100
AcDbEntity
  8
FULL
100
AcDbLeader
  3
STANDARD
 76
     2
 10
25.874409
 20
13.031844
 30
0.0
 10
20.612396
 20
10.468338
 30
0.0
 77
   256
1001
ACAD
1000
LEANOF
1010
0.0
1020
0.0
1030
0.0
  0
LEADER
  5
CFA
100
AcDbEntity
  8
FULL
100
AcDbLeader
  3
STANDARD
 76
     2
 10
13.810374
 20
13.031844
 30
0.0
 10
20.612396
 20
10.468338
 30
0.0
 77
   256
1001
ACAD
1000
LEANOF
1010
0.0
1020
0.0
1030
0.0
  0
MTEXT
  5
D01
100
AcDbEntity
  8
FULL
  6
BYBLOCK
100
AcDbMText
 10
17.90725
 20
10.323362
 30
0.0
 40
0.5
 41
0.0
 71
     5
 72
     1
  1
\A1;1 [25] I.P.S.
  7
ROMANS
  0
ENDSEC
  0
SECTION
  2
OBJECTS
  0
DICTIONARY
  5
C
100
AcDbDictionary
  3
ACAD_GROUP
350
D
  3
ACAD_MLINESTYLE
350
1A
  3
ACDBVARIABLEDICTIONARY
350
36
  0
DICTIONARY
  5
D
102
{ACAD_REACTORS
330
C
102
}
100
AcDbDictionary
  0
DICTIONARY
  5
1A
102
{ACAD_REACTORS
330
C
102
}
100
AcDbDictionary
  3
STANDARD
350
1B
  0
DICTIONARY
  5
36
102
{ACAD_REACTORS
330
C
102
}
100
AcDbDictionary
  3
DIMADEC
350
37
  0
MLINESTYLE
  5
1B
102
{ACAD_REACTORS
330
1A
102
}
100
AcDbMlineStyle
  2
STANDARD
 70
     0
  3

 62
   256
 51
90.0
 52
90.0
 71
     2
 49
0.5
 62
   256
  6
BYLAYER
 49
-0.5
 62
   256
  6
BYLAYER
  0
DICTIONARYVAR
  5
37
102
{ACAD_REACTORS
330
36
102
}
100
DictionaryVariables
280
     0
  1
0
  0
ENDSEC
  0
EOF
